TORRENTS43.COM

Скачать Тело Дженнифер / Jennifer's Body (2009) BDRip [H.264] [Unrated Edition]


Тело Дженнифер / Jennifer's Body (2009) BDRip [H.264]
Производство: США/ Dune Entertainment, Fox Atomic, Hard C
Жанр: Ужасы, Комедия

Режиссер: Карин Кусама
Продюсер: Дэн Дубицки, Мэйсон Новик, Джейсон Райтман
Актеры: Меган Фокс, Аманда Сайфред, Джонни Симмонс, Адам Броди, Дж.К. Симмонс, Кайл Галлнер, Крис Пратт, Хуан Ридингер, Сэл Кортез, Райан Ливайн

Описание:
Захолустный американский городок замер от ужаса: в Главную героиню — участницу команды болельщиц — вселился бес, и она, по никому неизвестным причинам, убивает парней. На хрупкие плечи ее лучшей подруги ложится непосильная ноша — она должна найти способ остановить адски разбушевавшуюся убийцу.


Возраст: 16+ (зрителям, достигшим 16 лет)
Рейтинг MPAA: R (лицам до 17 лет обязательно присутствие взрослого)

Релиз от: Охрана (Torrents43.com)
Продолжительность: 01:47:29
Качество видео: BDRip
Перевод: Дублированный, авторский
Субтитры: Русские, английские

Видео: AVC/H.264, 1024x552, ~2650 Kbps
Аудио 1: Русский, AC3, 6 ch, 384 Kbps, 48.0 kHz (Dub, Невафильм)
Аудио 2: Русский, AC3, 6 ch, 384 Kbps, 48.0 kHz (AVO, М. Яроцкий)
Аудио 3: Английский, AC3, 6 ch, 384 Kbps, 48.0 kHz (Оригинал)

Mediainfo:


Общее
Уникальный идентификатор : 180321526542706002373694425624960023101 (0x87A8A9AA8C8C96F8B941261E8E9FBA3D)
Полное имя : F:\Downloads\Тело Дженнифер. 2009. torrents43.comv
Формат : Matroska
Версия формата : Version 4 / Version 2
Размер файла : 2,86 Гбайт
Продолжительность : 1 ч. 47 м.
Общий поток : 3803 Кбит/сек
Дата кодирования : UTC 2018-04-28 21:43:15
Программа кодирования : mkvmerge v7.9.0 ('Birds') 64bit
Библиотека кодирования : libebml v1.3.1 + libmatroska v1.4.2

Видео
Идентификатор : 1
Формат : AVC
Формат/Информация : Advanced Video Codec
Профиль формата : High@L4.1
Настройки формата : CABAC / 10 Ref Frames
Параметр CABAC формата : Да
Параметр RefFrames формата : 10 кадров
Идентификатор кодека : V_MPEG4/ISO/AVC
Продолжительность : 1 ч. 47 м.
Битрейт : 2650 Кбит/сек
Ширина : 1024 пикселя
Высота : 552 пикселя
Соотношение сторон : 1,85:1
Режим частоты кадров : Постоянный
Частота кадров : 23,976 (24000/1001) кадра/сек
Цветовое пространство : YUV
Субдискретизация насыщенности : 4:2:0
Битовая глубина : 8 бит
Тип развёртки : Прогрессивная
Бит/(Пиксели*Кадры) : 0.196
Размер потока : 1,99 Гбайт (70%)
Заголовок : Jennifer's Body
Библиотека кодирования : x264 core 146 r2538 121396c
Настройки программы : cabac=1 / ref=10 / deblock=1:-1:-1 / analyse=0x3:0x113 / me=umh / subme=10 / psy=1 / psy_rd=1.00:0.10 / mixed_ref=1 / me_range=32 / chroma_me=1 / trellis=2 / 8x8dct=1 / cqm=0 / deadzone=21,11 / fast_pskip=0 / chroma_qp_offset=-3 / threads=6 / lookahead_threads=1 / sliced_threads=0 / nr=0 / decimate=0 / interlaced=0 / bluray_compat=0 / constrained_intra=0 / bframes=7 / b_pyramid=2 / b_adapt=2 / b_bias=0 / direct=3 / weightb=1 / open_gop=0 / weightp=2 / keyint=250 / keyint_min=25 / scenecut=40 / intra_refresh=0 / rc_lookahead=60 / rc=2pass / mbtree=1 / bitrate=2650 / ratetol=1.0 / qcomp=0.60 / qpmin=0 / qpmax=69 / qpstep=4 / cplxblur=20.0 / qblur=0.5 / vbv_maxrate=14000 / vbv_bufsize=14000 / nal_hrd=none / filler=0 / ip_ratio=1.40 / aq=1:1.00
Язык : English
Default : Да
Forced : Нет

Аудио #1
Идентификатор : 2
Формат : AC-3
Формат/Информация : Audio Coding 3
Идентификатор кодека : A_AC3
Продолжительность : 1 ч. 47 м.
Вид битрейта : Постоянный
Битрейт : 384 Кбит/сек
Каналы : 6 каналов
Расположение каналов : Front: L C R, Side: L R, LFE
Частота : 48,0 КГц
Частота кадров : 31,250 кадров/сек (1536 SPF)
Битовая глубина : 16 бит
Метод сжатия : С потерями
Размер потока : 295 Мбайт (10%)
Заголовок : Дубляж
Язык : Russian
ServiceKind/String : Complete Main
Default : Да
Forced : Нет

Аудио #2
Идентификатор : 3
Формат : AC-3
Формат/Информация : Audio Coding 3
Идентификатор кодека : A_AC3
Продолжительность : 1 ч. 47 м.
Вид битрейта : Постоянный
Битрейт : 384 Кбит/сек
Каналы : 6 каналов
Расположение каналов : Front: L C R, Side: L R, LFE
Частота : 48,0 КГц
Частота кадров : 31,250 кадров/сек (1536 SPF)
Битовая глубина : 16 бит
Метод сжатия : С потерями
Размер потока : 295 Мбайт (10%)
Заголовок : Авторский, М. Яроцкий
Язык : Russian
ServiceKind/String : Complete Main
Default : Нет
Forced : Нет

Аудио #3
Идентификатор : 4
Формат : AC-3
Формат/Информация : Audio Coding 3
Идентификатор кодека : A_AC3
Продолжительность : 1 ч. 47 м.
Вид битрейта : Постоянный
Битрейт : 384 Кбит/сек
Каналы : 6 каналов
Расположение каналов : Front: L C R, Side: L R, LFE
Частота : 48,0 КГц
Частота кадров : 31,250 кадров/сек (1536 SPF)
Битовая глубина : 16 бит
Метод сжатия : С потерями
Размер потока : 295 Мбайт (10%)
Заголовок : Оригинал
Язык : English
ServiceKind/String : Complete Main
Default : Нет
Forced : Нет

Текст #1
Идентификатор : 5
Формат : UTF-8
Идентификатор кодека : S_TEXT/UTF8
Идентификатор кодека/Информация : UTF-8 Plain Text
Продолжительность : 1 ч. 42 м.
Битрейт : 86 бит/сек
ElementCount : 1101
Размер потока : 65,0 Кбайт (0%)
Заголовок : SRT
Язык : Russian
Default : Нет
Forced : Нет

Текст #2
Идентификатор : 6
Формат : UTF-8
Идентификатор кодека : S_TEXT/UTF8
Идентификатор кодека/Информация : UTF-8 Plain Text
Продолжительность : 1 ч. 46 м.
Битрейт : 57 бит/сек
ElementCount : 1260
Размер потока : 45,2 Кбайт (0%)
Заголовок : SRT
Язык : English
Default : Нет
Forced : Нет
Скриншоты:

Дополнительные скриншоты:



Все одноименные релизы в Клубе

Смотреть Online

http://moonwalk.cc/video/deaf06c120031ac1e136280848355a61/iframe
Детали торрента:
Название:Тело Дженнифер / Jennifer's Body (2009) BDRip [H.264] [Unrated Edition]
Дата добавления:29 Апр 2018 07:18:01
Размер:2,86 GB
Раздают:11
Качают:1
Форум:Зарубежные Фильмы (HD*Rip/LQ, DVDRip, SATRip, VHSRip)

All rights reserved © 2015-2018