TORRENTS43.COM

Скачать Вне игры (2017) WEBRip [H.264/1080p-LQ] (серии 1-8 из 12) (обновляемая)


Вне игры (2017) WEBRip [H.264/1080p-LQ] (серии 1-8 из 12) (обновляемая)
Производство: Россия / Yellow, Black & White
Жанр: спорт, драма, комедия

Режиссер: Виктор Шамиров, Дарья Балинова
Актеры: Ростислав Бершауэр, Никита Павленко, Анна Тараторкина, Николай Калинычев, Кирилл Чернышенко, Александр Хованский, Василина Юсковец, Анастасия Куимова и др.

Описание:
Главная сюжетная линия выстраивается вокруг странной дружбы бывшего профессионального футболиста, одинокого, пьющего скаута футбольной школы ФК «Локомотив» Фила и фаната ФК «Локомотив» Саши. Также в сериале речь пойдет об отношениях Фила и Ольги, матери талантливого пятнадцатилетнего парня Дениса Рыбальченко, которому Фил и Саша пытаются помочь стать большим футболистом. Футбол переплетает судьбы людей из разных поколений, дает шанс на успех, дружбу и любовь.


Дата российской премьеры: 25 апреля 2018

Продолжительность: ~00:25:00 серия
Качество видео: WEBRip

Видео: AVC/H.264, 1920x1080 (16:9), ~6400 Kbps
Аудио: AC3, 2 ch, 192 Kbps

Mediainfo:


Полное имя : H:\Vne_igry_(1080p)\Vne.igry.e01.2017.WEB-DL.(1080p).mkv
Формат : Matroska
Версия формата : Version 4 / Version 2
Размер файла : 1,35 Гбайт
Продолжительность : 29 м. 16 с.
Общий поток : 6594 Кбит/сек
Название фильма : Vne.igry.e01.2017.WEB-DL.(1080p).Getty
Дата кодирования : UTC 2018-04-24 19:47:13
Программа кодирования : mkvmerge v7.8.0 ('River Man') 32bit built on Mar 27 2015 16:18:02
Библиотека кодирования : libebml v1.3.1 + libmatroska v1.4.2

Видео
Идентификатор : 1
Формат : AVC
Формат/Информация : Advanced Video Codec
Профиль формата : High@L4
Настройки формата : CABAC / 4 Ref Frames
Параметр CABAC формата : Да
Параметр RefFrames формата : 4 кадра
Параметр GOP формата : M=2, N=15
Идентификатор кодека : V_MPEG4/ISO/AVC
Продолжительность : 29 м. 16 с.
Битрейт : 6400 Кбит/сек
Ширина : 1920 пикселей
Высота : 1080 пикселей
Соотношение сторон : 16:9
Режим частоты кадров : Постоянный
Частота кадров : 23,976 (24000/1001) кадра/сек
Цветовое пространство : YUV
Субдискретизация насыщенности : 4:2:0
Битовая глубина : 8 бит
Тип развёртки : Прогрессивная
Бит/(Пиксели*Кадры) : 0.129
Размер потока : 1,31 Гбайт (97%)
Default : Да
Forced : Нет

Аудио
Идентификатор : 2
Формат : AC-3
Формат/Информация : Audio Coding 3
Параметр Endianness формата : Big
Идентификатор кодека : A_AC3
Продолжительность : 29 м. 16 с.
Вид битрейта : Постоянный
Битрейт : 192 Кбит/сек
Каналы : 2 канала
Расположение каналов : Front: L R
Частота : 48,0 КГц
Частота кадров : 31,250 кадров/сек (1536 SPF)
Битовая глубина : 16 бит
Метод сжатия : С потерями
Размер потока : 40,2 Мбайт (3%)
ServiceKind/String : Complete Main
Default : Да
Forced : Нет

Внимание! Раздача ведётся путём добавления новых серий:

Внимание! Раздача ведётся путём добавления новых серий; при каждом добавлении создаётся новый торрент.
Чтобы начать докачку новой серии, пользователям необходимо сделать следующее:
1. Остановить скачивание;
2. Удалить старый торрент у себя из клиента (старые серии удалять не надо);
3. Скачать новый торрент и запустить его у себя в клиенте вместо старого, при этом указать клиенту путь в старую папку куда и должно происходить скачивание новых серий. Ваш клиент при этом должен произвести хеширование (проверку) старой папки и будет докачивать только те серии, которых у вас ещё нет. Старые серии при этом не удаляются, а продолжают раздаваться! Eсли вы уже удалили старые серии, то предотвратить повторную закачку старых серий можно, отжав галочку в соответствующих местах при запуске нового торрента.
Скриншоты:



Все одноименные релизы в Клубе

Смотреть Online

http://moonwalk.cc/video/8e8ea791d90046eb/iframe
Детали торрента:
Название:Вне игры (2017) WEBRip [H.264/1080p-LQ] (серии 1-8 из 12) (обновляемая)
Дата добавления:18 Май 2018 09:29:24
Размер:9,66 GB
Раздают:41
Качают:9
Форум:Отечественные сериалы

All rights reserved © 2015-2018