TORRENTS43.COM

Скачать Детство Шелдона / Молодой Шелдон / Young Sheldon (2017) WEB-DL [H.264/1080p-LQ] (сезон 1, серии 1-22 из 22) Кураж-Бамбей


Детство Шелдона / Молодой Шелдон / Young Sheldon (2017) WEB-DL [H.264/1080p-LQ] (сезон 1, серии 1-22 из 22) Кураж-Бамбей (обновляемая)
Производство: США
Жанр: комедия

Режиссеры: Майкл Цинберг, Джон Фавро, Джаффар Махмуд
Актеры: Иан Армитидж, Зои Перри, Ланс Барбер, Реган Реворд, Монтана Джордан, Джим Парсонс, Боб Ньюхарт и др.

Описание:
«Детство Шелдона», также известный как «Молодой Шелдон» и «Юный Шелдон» (англ. Young Sheldon) — американский ситком, созданный Чаком Лорри и Стивеном Моларо. Премьера сериала состоялась 25 сентября 2017 года на телеканале CBS. Сериал является приквелом к «Теории большого взрыва» и в нем рассказывается о Шелдоне Купере, когда ему было 9 лет и он ходил в школу в Восточном Техасе. Джим Парсонс, игравший Шелдона в «Теории большого взрыва», выступил в роли рассказчика, а также одним из исполнительных продюсеров.


Возраст: 16+ (зрителям, достигшим 16 лет)

Продолжительность: ~00:20:00 серия
Качество видео: WEB-DL
Перевод: одноголосый закадровый, профессиональный (Кураж-Бамбей)
Субтитры: английские

Видео: AVC/H.264, 1920x1080 (16:9), ~6400 Kbps
Аудио #1: AC-3, 2 ch, 192 Kbps - русский, одноголосый закадровый
Аудио #2: E-AC-3, 6 ch, 640 Kbps - английский

Mediainfo

General
Unique ID : 233777516753749176033642688917341481859 (0xAFDFE977C973EEE9B441B8D5621C2B83)
Complete name : /basa/torrent/in/Young.Sheldon.S01.1080p.AMZN.WEB-DL.H.264-Kuraj-Bambey/Young.Sheldon.S01E01.Pilot.1080p.AMZN.WEB-DL.H.264-Kuraj-Bambey.mkv
Format : Matroska
Format version : Version 4 / Version 2
File size : 1.08 GiB
Duration : 21 min 17 s
Overall bit rate mode : Variable
Overall bit rate : 7 237 kb/s
Encoded date : UTC 2017-11-14 09:51:47
Writing application : mkvmerge v17.0.0 ('Be Ur Friend') 64-bit
Writing library : libebml v1.3.5 + libmatroska v1.4.8
Cover : Yes
Attachments : cover.sheldon.jpg

Video
ID : 1
Format : AVC
Format/Info : Advanced Video Codec
Format profile : High@L4
Format settings : CABAC / 4 Ref Frames
Format settings, CABAC : Yes
Format settings, ReFrames : 4 frames
Codec ID : V_MPEG4/ISO/AVC
Duration : 21 min 17 s
Bit rate mode : Variable
Bit rate : 6 401 kb/s
Maximum bit rate : 15.0 Mb/s
Width : 1 920 pixels
Height : 1 080 pixels
Display aspect ratio : 16:9
Frame rate mode : Constant
Frame rate : 23.976 (24000/1001) FPS
Color space : YUV
Chroma subsampling : 4:2:0
Bit depth : 8 bits
Scan type : Progressive
Bits/(Pixel*Frame) : 0.129
Stream size : 975 MiB (88%)
Language : English
Default : Yes
Forced : No
Color range : Limited
Color primaries : BT.709
Transfer characteristics : BT.709
Matrix coefficients : BT.709

Audio #1
ID : 2
Format : AC-3
Format/Info : Audio Coding 3
Codec ID : A_AC3
Duration : 21 min 17 s
Bit rate mode : Constant
Bit rate : 192 kb/s
Channel(s) : 2 channels
Channel positions : Front: L R
Sampling rate : 48.0 kHz
Frame rate : 31.250 FPS (1536 SPF)
Bit depth : 16 bits
Compression mode : Lossy
Stream size : 29.2 MiB (3%)
Language : Russian
Service kind : Complete Main
Default : Yes
Forced : No

Audio #2
ID : 3
Format : E-AC-3
Format/Info : Enhanced Audio Coding 3
Codec ID : A_EAC3
Duration : 21 min 17 s
Bit rate mode : Constant
Bit rate : 640 kb/s
Channel(s) : 6 channels
Channel positions : Front: L C R, Side: L R, LFE
Sampling rate : 48.0 kHz
Frame rate : 187.500 FPS (256 SPF)
Compression mode : Lossy
Stream size : 97.5 MiB (9%)
Language : English
Service kind : Complete Main
Default : No
Forced : No

Text
ID : 4
Format : UTF-8
Codec ID : S_TEXT/UTF8
Codec ID/Info : UTF-8 Plain Text
Duration : 20 min 44 s
Bit rate : 95 b/s
Count of elements : 502
Stream size : 14.5 KiB (0%)
Language : English
Default : No
Forced : No
Скриншоты:



Все одноименные релизы в Клубе

Смотреть Online

http://moonwalk.cc/serial/42c7e5cfbd32546df7dc5917b7f1ac8c/iframe
Детали торрента:
Название:Детство Шелдона / Молодой Шелдон / Young Sheldon (2017) WEB-DL [H.264/1080p-LQ] (сезон 1, серии 1-22 из 22) Кураж-Бамбей
Дата добавления:17 Май 2018 09:10:38
Размер:32 GB
Раздают:37
Качают:18
Форум:Теория Большого Взрыва / The Big Bang Theory

All rights reserved © 2015-2018