TORRENTS43.COM

Скачать NGW: Бесплодные земли / Badlands hard rock - tough lives (2017) HDTV [H.264/1080i-LQ]


Бесплодные земли / Badlands hard rock - tough lives (2017) HDTV [H.264/1080i-LQ]
Производство: Австрия, Nat Geo Wild
Жанр: Документальный, природа, флора, фауна

Режиссер: Майк Биркхед

Описание:
В самом сердце Среднего Запада США раскинулся ландшафт, представляющий собой бесплодные земли, на которых пышные луга прорезают горные вершины и остроконечные скалы.

Продолжительность: 00:43:59
Качество видео: HDTV
Перевод: Одноголосый закадровый, профессиональный (Велес)
Субтитры: отсутствуют

Видео: AVC/H.264, 1920x1080, ~6500 Kbps
Аудио: MP2, 2 ch, 192 Kbps (текст читал: Олег Белов)

Mediainfo:


Общее
Идентификатор : 1 (0x1)
Полное имя : F:\КИНО\Бесплодные земли 1080i (2017).ts
Формат : MPEG-TS
Размер файла : 2,13 Гбайт
Продолжительность : 43 м. 59 с.
Режим общего битрейта : Переменный
Общий поток : 6941 Кбит/сек

Видео
Идентификатор : 1154 (0x482)
Идентификатор меню : 135 (0x87)
Формат : AVC
Формат/Информация : Advanced Video Codec
Профиль формата : Main@L4
Настройки формата : CABAC / 4 Ref Frames
Параметр CABAC формата : Да
Параметр RefFrames формата : 4 кадра
Идентификатор кодека : 27
Продолжительность : 43 м. 59 с.
Вид битрейта : Постоянный
Битрейт : 6499 Кбит/сек
Ширина : 1920 пикселей
Высота : 1080 пикселей
Соотношение сторон : 16:9
Частота кадров : 25,000 кадров/сек
Цветовое пространство : YUV
Субдискретизация насыщенности : 4:2:0
Битовая глубина : 8 бит
Тип развёртки : Чересстрочная
Метод сохранения типа развёртки : Раздельные поля
Порядок развёртки : Верхнее поле первое
Бит/(Пиксели*Кадры) : 0.125
Размер потока : 1,97 Гбайт (92%)

Аудио
Идентификатор : 1155 (0x483)
Идентификатор меню : 135 (0x87)
Формат : MPEG Audio
Версия формата : Version 1
Профиль формата : Layer 2
Идентификатор кодека : 3
Продолжительность : 43 м. 59 с.
Вид битрейта : Постоянный
Битрейт : 192 Кбит/сек
Каналы : 2 канала
Частота : 48,0 КГц
Частота кадров : 41,667 кадра/сек (1152 SPF)
Метод сжатия : С потерями
Размер потока : 60,4 Мбайт (3%)
Язык : Russian
Скриншоты:


Все одноименные релизы в Клубе
Детали торрента:
Название:NGW: Бесплодные земли / Badlands hard rock - tough lives (2017) HDTV [H.264/1080i-LQ]
Дата добавления:02 Май 2018 00:05:23
Размер:2,13 GB
Раздают:3
Качают:1
Форум:National Geographic

All rights reserved © 2015-2018