TORRENTS43.COM

Скачать NGW: Джейн Гудолл. Спасение рая / Jane Goodall: Saving Paradise (2018) HDTV [H.264/1080i-LQ]


Джейн Гудолл: Спасение рая / Jane Goodall: Saving Paradise (2018) HDTV [H.264/1080i-LQ]
Производство: Нидерланды, Nat Geo Wild
Жанр: Документальный, природа, флора, фауна

Режиссер: Алан Миллер

Описание:
Три острова недалеко от берегов Танзании оказались под защитой от уничтожения на них дикой природы благодаря невероятным усилиям нескольких замечательных людей.

Продолжительность: 00:44:00
Качество видео: HDTV
Перевод: Дублированный
Субтитры: отсутствуют

Видео: AVC/H.264, 1920x1080, ~6500 Kbps
Аудио#1: MP2, 2 ch, 192 Kbps | Русский
Аудио#2: MP2, 2 ch, 192 Kbps | Английский

Mediainfo:


Общее
Идентификатор : 1 (0x1)
Полное имя : F:\КИНО\Джейн Гудолл 1080i (2018).ts
Формат : MPEG-TS
Размер файла : 2,21 Гбайт
Продолжительность : 43 м. 59 с.
Режим общего битрейта : Переменный
Общий поток : 7198 Кбит/сек

Видео
Идентификатор : 1154 (0x482)
Идентификатор меню : 135 (0x87)
Формат : AVC
Формат/Информация : Advanced Video Codec
Профиль формата : Main@L4
Настройки формата : CABAC / 2 Ref Frames
Параметр CABAC формата : Да
Параметр RefFrames формата : 2 кадра
Параметр GOP формата : M=3, N=32
Идентификатор кодека : 27
Продолжительность : 43 м. 59 с.
Вид битрейта : Постоянный
Битрейт : 6500 Кбит/сек
Ширина : 1920 пикселей
Высота : 1080 пикселей
Соотношение сторон : 16:9
Частота кадров : 25,000 кадров/сек
Цветовое пространство : YUV
Субдискретизация насыщенности : 4:2:0
Битовая глубина : 8 бит
Тип развёртки : Чересстрочная
Метод сохранения типа развёртки : Раздельные поля
Порядок развёртки : Верхнее поле первое
Бит/(Пиксели*Кадры) : 0.125
Размер потока : 1,98 Гбайт (90%)

Аудио #1
Идентификатор : 1155 (0x483)
Идентификатор меню : 135 (0x87)
Формат : MPEG Audio
Версия формата : Version 1
Профиль формата : Layer 2
Идентификатор кодека : 3
Продолжительность : 43 м. 59 с.
Вид битрейта : Постоянный
Битрейт : 192 Кбит/сек
Каналы : 2 канала
Частота : 48,0 КГц
Частота кадров : 41,667 кадра/сек (1152 SPF)
Метод сжатия : С потерями
Размер потока : 60,4 Мбайт (3%)
Язык : Russian

Аудио #2
Идентификатор : 1156 (0x484)
Идентификатор меню : 135 (0x87)
Формат : MPEG Audio
Версия формата : Version 1
Профиль формата : Layer 2
Идентификатор кодека : 3
Продолжительность : 43 м. 59 с.
Вид битрейта : Постоянный
Битрейт : 192 Кбит/сек
Каналы : 2 канала
Частота : 48,0 КГц
Частота кадров : 41,667 кадра/сек (1152 SPF)
Метод сжатия : С потерями
Размер потока : 60,4 Мбайт (3%)
Язык : English
Скриншоты:


Все одноименные релизы в Клубе
Детали торрента:
Название:NGW: Джейн Гудолл. Спасение рая / Jane Goodall: Saving Paradise (2018) HDTV [H.264/1080i-LQ]
Дата добавления:02 Май 2018 00:20:15
Размер:2,21 GB
Раздают:6
Качают:0
Форум:National Geographic

All rights reserved © 2015-2018