TORRENTS43.COM

Скачать Драка в блоке 99 / Brawl in Cell Block 99 (2017) BDRip [H.264]


Драка в блоке 99 / Brawl in Cell Block 99 (2017) BDRip
Производство: США / Assemble Media, Caliber Media Company, Cinestate, Realmbuilders Productio, XYZ Films
Жанр: Боевик, триллер, криминал

Режиссер: С. Крэйг Залер
Актеры: Винс Вон, Дженнифер Карпентер, Том Гайри, Дон Джонсон, Марк Блукас, Удо Кир, Мустафа Жакир, Гено Седжерс, Роб Морган, Фред Меламед

Описание:
Бывший боксер и наркодилер Брэдли Томас пытался завязать с преступным прошлым, но оно затащило его обратно. Он с подельниками попался с поличным и отправился в тюрьму на 7 лет. И всё это так не вовремя, жена беременна долгожданной дочкой, а тут ещё на свиданку заявляется непонятный тип и, шантажируя нерожденным ребенком, велит Брэдли убить заключённого в блоке 99 тюрьмы строгого режима.


Дата мировой премьеры: 2 сентября 2017

Продолжительность: 02:12:23
Качество видео: BDRip
Перевод: Дублированный, авторский (Дохалов)
Субтитры: Русские (Full), английские (Full, SDH)

Видео: H.264/AVC, 1024x552, ~1502 Kbps
Аудио #1: AC-3, 6 ch, 384 Kbps | Русский (Дублированный)
Аудио #2: AC-3, 6 ch, 448 Kbps | Русский (Авторский)
Аудио #3: AC-3, 6 ch, 448 Kbps | Английский

MediaInfo:


Общее
Уникальный идентификатор : 171521148263765610317440376804424708701 (0x8109C5848ADC5118A8BC09750822725D)
Полное имя : E:\NNM\Драка в блоке 99\Brawl in Cell Block 99 2017 BDRip-AVC.mkv
Формат : Matroska
Версия формата : Version 2
Размер файла : 2,57 Гбайт
Продолжительность : 2 ч. 12 м.
Общий поток : 2774 Кбит/сек
Дата кодирования : UTC 2018-05-01 13:55:07
Программа кодирования : mkvmerge v5.6.0 ('Kenya Kane') built on May 27 2012 16:44:04
Библиотека кодирования : libebml v1.2.3 + libmatroska v1.3.0

Видео
Идентификатор : 1
Формат : AVC
Формат/Информация : Advanced Video Codec
Профиль формата : High@L4.1
Настройки формата : CABAC / 12 Ref Frames
Параметр CABAC формата : Да
Параметр RefFrames формата : 12 кадров
Идентификатор кодека : V_MPEG4/ISO/AVC
Продолжительность : 2 ч. 12 м.
Битрейт : 1502 Кбит/сек
Ширина : 1024 пикселя
Высота : 552 пикселя
Соотношение сторон : 1,85:1
Режим частоты кадров : Постоянный
Частота кадров : 23,976 (23976/1000) кадра/сек
Цветовое пространство : YUV
Субдискретизация насыщенности : 4:2:0
Битовая глубина : 8 бит
Тип развёртки : Прогрессивная
Бит/(Пиксели*Кадры) : 0.111
Размер потока : 1,33 Гбайт (52%)
Заголовок : Enigma
Библиотека кодирования : x264 core 152 r2851 ba24899
Настройки программы : cabac=1 / ref=12 / deblock=1:-2:-2 / analyse=0x3:0x113 / me=umh / subme=10 / psy=1 / psy_rd=1.00:0.10 / mixed_ref=1 / me_range=32 / chroma_me=1 / trellis=2 / 8x8dct=1 / cqm=0 / deadzone=21,11 / fast_pskip=0 / chroma_qp_offset=-3 / threads=12 / lookahead_threads=3 / sliced_threads=0 / nr=0 / decimate=0 / interlaced=0 / bluray_compat=0 / constrained_intra=0 / bframes=14 / b_pyramid=2 / b_adapt=2 / b_bias=0 / direct=3 / weightb=1 / open_gop=0 / weightp=2 / keyint=240 / keyint_min=23 / scenecut=40 / intra_refresh=0 / rc_lookahead=40 / rc=2pass / mbtree=0 / bitrate=1502 / ratetol=1.0 / qcomp=0.60 / qpmin=0 / qpmax=51 / qpstep=4 / cplxblur=20.0 / qblur=0.5 / vbv_maxrate=50000 / vbv_bufsize=62500 / nal_hrd=none / filler=0 / ip_ratio=1.25 / pb_ratio=1.30 / aq=3:0.90
Язык : English
Default : Да
Forced : Нет
Цветовой диапазон : Limited
Основные цвета : BT.709
Характеристики трансфера : BT.709
Коэффициенты матрицы : BT.709

Аудио #1
Идентификатор : 2
Формат : AC-3
Формат/Информация : Audio Coding 3
Идентификатор кодека : A_AC3
Продолжительность : 2 ч. 12 м.
Вид битрейта : Постоянный
Битрейт : 384 Кбит/сек
Каналы : 6 каналов
Расположение каналов : Front: L C R, Side: L R, LFE
Частота : 48,0 КГц
Частота кадров : 31,250 кадров/сек (1536 SPF)
Битовая глубина : 16 бит
Метод сжатия : С потерями
Размер потока : 364 Мбайт (14%)
Заголовок : Dub (R5)
Язык : Russian
ServiceKind/String : Complete Main
Default : Да
Forced : Нет

Аудио #2
Идентификатор : 3
Формат : AC-3
Формат/Информация : Audio Coding 3
Идентификатор кодека : A_AC3
Продолжительность : 2 ч. 12 м.
Вид битрейта : Постоянный
Битрейт : 448 Кбит/сек
Каналы : 6 каналов
Расположение каналов : Front: L C R, Side: L R, LFE
Частота : 48,0 КГц
Частота кадров : 31,250 кадров/сек (1536 SPF)
Битовая глубина : 16 бит
Метод сжатия : С потерями
Размер потока : 424 Мбайт (16%)
Заголовок : AVO (Dohalov)
Язык : Russian
ServiceKind/String : Complete Main
Default : Нет
Forced : Нет

Аудио #3
Идентификатор : 4
Формат : AC-3
Формат/Информация : Audio Coding 3
Идентификатор кодека : A_AC3
Продолжительность : 2 ч. 12 м.
Вид битрейта : Постоянный
Битрейт : 448 Кбит/сек
Каналы : 6 каналов
Расположение каналов : Front: L C R, Side: L R, LFE
Частота : 48,0 КГц
Частота кадров : 31,250 кадров/сек (1536 SPF)
Битовая глубина : 16 бит
Метод сжатия : С потерями
Размер потока : 424 Мбайт (16%)
Язык : English
ServiceKind/String : Complete Main
Default : Нет
Forced : Нет

Текст #1
Идентификатор : 5
Формат : UTF-8
Идентификатор кодека : S_TEXT/UTF8
Идентификатор кодека/Информация : UTF-8 Plain Text
Заголовок : Full
Язык : Russian
Default : Нет
Forced : Нет

Текст #2
Идентификатор : 6
Формат : UTF-8
Идентификатор кодека : S_TEXT/UTF8
Идентификатор кодека/Информация : UTF-8 Plain Text
Заголовок : Full
Язык : English
Default : Нет
Forced : Нет

Текст #3
Идентификатор : 7
Формат : UTF-8
Идентификатор кодека : S_TEXT/UTF8
Идентификатор кодека/Информация : UTF-8 Plain Text
Заголовок : SDH
Язык : English
Default : Нет
Forced : Нет

Меню
00:00:00.000 : en:Chapter 01
00:13:43.906 : en:Chapter 02
00:27:24.684 : en:Chapter 03
00:44:54.608 : en:Chapter 04
01:01:18.383 : en:Chapter 05
01:10:07.244 : en:Chapter 06
01:20:00.587 : en:Chapter 07
01:28:07.282 : en:Chapter 08
01:58:05.244 : en:Chapter 09
02:04:53.944 : en:Chapter 10
Скриншоты:


Все релизы фильма «Драка в блоке 99» на Torrents43.com

Смотреть Online

http://moonwalk.cc/video/cf76c7e7548e9401/iframe
Детали торрента:
Название:Драка в блоке 99 / Brawl in Cell Block 99 (2017) BDRip [H.264]
Дата добавления:02 Май 2018 03:33:11
Размер:2,57 GB
Раздают:393
Качают:2
Форум:Зарубежные Новинки (HD*Rip/LQ, DVDRip)

All rights reserved © 2015-2018