TORRENTS43.COM

Скачать Арабелла - дочь пирата (1983) DVDRip


Арабелла - дочь пирата (1983) DVDRip
Производство: СССР «Таллинфильм»
Жанр: Приключения, Семейный

Режиссер: Пеэтер Симм
Актеры: Инга-Кай Пускар-Полонски, Лембит Петерсон, Урмас Кибуспуу, Райво Трасс, Леело Спирка, Лембит Ульфсак, Аарне Юкскюла, Сулев Луйк, Эндель Пярн, Ильмар Таммур

Описание:
Отчаянная и дерзкая Арабелла, дочь капитана пиратского корабля «Скорпион», поощряет во всем своего отца, который охотно делится награбленным с бедными. Девочка раздражает всю команду, а ее отец - Пуля - становится для них главным врагом.
Однажды пираты поднимают на борт «Скорпиона» странного человека по имени Ааду - и у девочки появляется еще один верный друг и защитник. Им троим - Арабелле, Пуле и Ааду - предстоит вскоре покинуть корабль и пережить немало удивительных приключений на море и на суше…


Дата российской премьеры: 22 августа 1983
Дата выхода DVD релиза: 23 декабря 2008, «Ruscico»

Продолжительность: 01:09:11
Качество видео: DVDRip
Субтитры: Отсутствуют

Видео: Xvid, 704x528 (1.33:1), 25 fps, ~2356 kbps, 0.25 bit/pixel
Аудио: AC3, 6 ch, ~448 kbps, 48 kHz

Mediainfo:


Общее
Полное имя : ...\CD\Арабелла - дочь пирата\Арабелла - дочь пирата (Приключения-Семейный) (1983) DVDRip.avi
Формат : AVI
Формат/Информация : Audio Video Interleave
Размер файла : 1,36 Гбайт
Продолжительность : 1 ч. 9 м.
Общий поток : 2815 Кбит/сек
Программа кодирования : VirtualDubMod 1.5.10.2 (build 2540/release)
Библиотека кодирования : VirtualDubMod build 2540/release

Видео
Идентификатор : 0
Формат : MPEG-4 Visual
Профиль формата : Advanced Simple@L5
Настройки формата : BVOP2 / Custom Matrix
Параметр BVOP формата : 2
Параметр QPel формата : Нет
Параметр GMC формата : Без точки перехода
Параметр матрицы формата : Выборочная
Идентификатор кодека : XVID
Идентификатор кодека/Подсказка : XviD
Продолжительность : 1 ч. 9 м.
Битрейт : 2357 Кбит/сек
Ширина : 704 пикселя
Высота : 528 пикселей
Соотношение сторон : 4:3
Частота кадров : 25,000 кадров/сек
Цветовое пространство : YUV
Субдискретизация насыщенности : 4:2:0
Битовая глубина : 8 бит
Тип развёртки : Прогрессивная
Метод сжатия : С потерями
Бит/(Пиксели*Кадры) : 0.254
Размер потока : 1,14 Гбайт (84%)
Библиотека кодирования : XviD 1.2.1 (UTC 2008-12-04)

Аудио
Идентификатор : 1
Формат : AC-3
Формат/Информация : Audio Coding 3
Идентификатор кодека : 2000
Продолжительность : 1 ч. 9 м.
Вид битрейта : Постоянный
Битрейт : 448 Кбит/сек
Каналы : 6 каналов
Расположение каналов : Front: L C R, Side: L R, LFE
Частота : 48,0 КГц
Частота кадров : 31,250 кадров/сек (1536 SPF)
Битовая глубина : 16 бит
Метод сжатия : С потерями
Задержка видео : 80 мс.
Размер потока : 222 Мбайт (16%)
Выравнивание : Разделение по промежуткам
Продолжительность промежутка : 40 мс. (1,00 видеокадр)
Время предзагрузки промежутка : 500 мс.
ServiceKind/String : Complete Main

Дополнительная информация:

Фильм снят по мотивам одноименной сказки эстонской писательницы Айно Первик.
Скриншоты:


Все одноименные релизы в Клубе
Детали торрента:
Название:Арабелла - дочь пирата (1983) DVDRip
Дата добавления:02 Май 2018 11:49:04
Размер:1,36 GB
Раздают:12
Качают:0
Форум:Отечественные Фильмы для детей

All rights reserved © 2015-2018