TORRENTS43.COM

Скачать Чёрная Пантера / Black Panther (2018) BDRip [H.264/1080p] [MVO] [PR, AD]


Чёрная Пантера / Black Panther (2018) BDRip [H.264/1080p] [MVO] [PR, AD]
Производство: США, Marvel Studios Inc., Walt Disney Pictures
Жанр: Фантастика, Боевик, Приключения

Режиссер: Райан Куглер
Продюсер: Виктория Алонсо, Джеффри Чернов, Луис Д’Эспозито
Актеры: Чэдвик Боузмэн, Майкл Б. Джордан, Лупита Нионго, Данай Джекесай Гурира, Мартин Фриман, Дэниэл Калуя, Летишиа Райт, Уинстон Дьюк, Стерлинг К. Браун, Анджела Бассетт

Описание:
С первого взгляда можно решить, что Ваканда — обычная территория дикой Африки, но это не так. Здесь, в недрах пустынных земель, скрываются залежи уникального металла, способного поглощать вибрацию. Многие пытались добраться до него, разоряя всё на своём пути и принося смерть аборигенам, но каждый раз таинственный дух саванны — Чёрная Пантера — вставал на защиту угнетённых.
Спустя много лет беда снова приходит в Ваканду, и в этот раз враг заручился поддержкой современных технологий. Когда шансов почти не остаётся, Т`Чалла, молодой принц Ваканды, узнаёт, что именно ему предстоит возродить легенду и продолжить вечную борьбу, надев маску Чёрной Пантеры


Возраст: 16+ (зрителям, достигшим 16 лет)
Рейтинг MPAA: PG-13 (детям до 13 лет просмотр нежелателен)
Дата мировой премьеры: 29 января 2018
Дата российской премьеры: 26 февраля 2018, «WDSSPR» 3D
Цифровой релиз: 18 мая 2018, «Уолт Дисней Компани СНГ»

Продолжительность: 02:14:33
Качество видео: BDRip 1080p
Перевод: Многоголосый закадровый ("MUZOBOZ")
Субтитры: Отсутствуют
Реклама: Присутствуют вставки текстовой рекламы

Видео: AVC/H.264, 1920x804, ~10.5 Mbps
Аудио: AC3, 2 ch, 448Kbps

Mediainfo:


Общее
Уникальный идентификатор : 101710378652100977546879605834461870498 (0x4C84B4D5FB5D46A1FDB90B0A815DF9A2)
Полное имя : D:\Видео\torrrent\Black.Panthera.2018.L.BDRip.1080p.KSHARA.mkv
Формат : Matroska
Версия формата : Version 4 / Version 2
Размер файла : 10,5 Гбайт
Продолжительность : 2 ч. 14 м.
Режим общего битрейта : Переменный
Общий поток : 11,2 Мбит/сек
Программа кодирования : Lavf57.71.100
Библиотека кодирования : Lavf57.71.100
ErrorDetectionType : Per level 1

Видео
Идентификатор : 1
Формат : AVC
Формат/Информация : Advanced Video Codec
Профиль формата : High@L4.1
Параметр CABAC формата : Да
Параметр RefFrames формата : 4 кадра
Идентификатор кодека : V_MPEG4/ISO/AVC
Продолжительность : 2 ч. 14 м.
Вид битрейта : Переменный
Битрейт : 10,5 Мбит/сек
Максимальный битрейт : 12,0 Мбит/сек
Ширина : 1920 пикселей
Высота : 804 пикселя
Соотношение сторон : 2,40:1
Режим частоты кадров : Постоянный
Частота кадров : 23,976 (24000/1001) кадра/сек
Стандарт вещания : Component
Цветовое пространство : YUV
Субдискретизация насыщенности : 4:2:0
Битовая глубина : 8 бит
Тип развёртки : Прогрессивная
Бит/(Пиксели*Кадры) : 0.285
Размер потока : 9,91 Гбайт (94%)
Default : Да
Forced : Нет
Цветовой диапазон : Limited
Основные цвета : BT.709
Характеристики трансфера : BT.709
Коэффициенты матрицы : BT.709
DURATION : 02:14:33.191000000

Аудио
Идентификатор : 2
Формат : AC-3
Формат/Информация : Audio Coding 3
Параметр Endianness формата : Big
Идентификатор кодека : A_AC3
Продолжительность : 2 ч. 14 м.
Вид битрейта : Постоянный
Битрейт : 448 Кбит/сек
Каналы : 2 канала
Расположение каналов : Front: L R
Частота : 48,0 КГц
Частота кадров : 31,250 кадров/сек (1536 SPF)
Битовая глубина : 16 бит
Метод сжатия : С потерями
Размер потока : 431 Мбайт (4%)
ServiceKind/String : Complete Main
Default : Да
Forced : Нет
DURATION : 02:14:33.150000000
Скриншоты:

Все одноименные релизы в Клубе
Детали торрента:
Название:Чёрная Пантера / Black Panther (2018) BDRip [H.264/1080p] [MVO] [PR, AD]
Дата добавления:05 Май 2018 22:48:43
Размер:10,5 GB
Раздают:624
Качают:5
Форум:Архив неактуальных Экранок и видео с Рекламой

All rights reserved © 2015-2018