TORRENTS43.COM

Скачать Посольство (2018) WEB-DL [H.264/1080p-LQ] (серии 1-14 из 14)


Посольство (2018) WEB-DL [H.264/1080p-LQ]
Производство: Россия
Жанр: драма, криминал

Режиссер: Артем Аксененко
Актеры: Игорь Ливанов, Гела Месхи, Виталий Кищенко, Виктория Толстоганова, Юлия Ауг, Илья Ермолов, Сергей Комаров, Сергей Апрельский, Алексей Назаров, Дмитрий Фрид и др

Описание:
Действие сериала разворачивается в одной из стран Восточной Европы. По сюжету, местные спецслужбы задерживают первого секретаря российского посольства Геннадия Марковича Веденеева. При загадочных обстоятельствах его обнаружили в одном из столичных баров с кейсом, набитым запрещёнными веществами. Это событие моментально становится главным международным скандалом. Теперь команде российских дипломатов во главе с Алексеем Прокофьевым нужно не только оперативно разобраться с запутанной сетью интриг вокруг российского посольства, но и придумать, как повернуть ситуацию в свою пользу.


Возраст: 16+ (зрителям, достигшим 16 лет)
Дата российской премьеры: 7 мая 2018

Релиз от: Алехаndr

Продолжительность: ~01:55:00 серия
Качество видео: WEB-DL

Видео: AVC/H.264, 1920x1080 (16:9), ~2385 Kbps
Аудио: AC3, 2 ch, 192 Kbps

Mediainfo:


Общее
Уникальный идентификатор : 258996404497602038646623475336818138366 (0xC2D8E4A19D8E2FAD64BEAFFB6D5B1CFE)
Полное имя : D:\Посольство (2018).by.Алехаndr\Серия 01.by.Алехаndr.mkv
Формат : Matroska
Версия формата : Version 4 / Version 2
Размер файла : 2,10 Гбайт
Продолжительность : 1 ч. 54 м.
Общий поток : 2629 Кбит/сек
Программа кодирования : Lavf57.71.100
Библиотека кодирования : Lavf57.71.100
ErrorDetectionType : Per level 1

Видео
Идентификатор : 1
Формат : AVC
Формат/Информация : Advanced Video Codec
Профиль формата : High@L4
Настройки формата : CABAC / 2 Ref Frames
Параметр CABAC формата : Да
Параметр RefFrames формата : 2 кадра
Идентификатор кодека : V_MPEG4/ISO/AVC
Продолжительность : 1 ч. 54 м.
Битрейт : 2384 Кбит/сек
Ширина : 1920 пикселей
Высота : 1080 пикселей
Соотношение сторон : 16:9
Режим частоты кадров : Постоянный
Частота кадров : 25,000 кадров/сек
Цветовое пространство : YUV
Субдискретизация насыщенности : 4:2:0
Битовая глубина : 8 бит
Тип развёртки : Прогрессивная
Бит/(Пиксели*Кадры) : 0.046
Размер потока : 1,91 Гбайт (91%)
Default : Да
Forced : Нет
Цветовой диапазон : Limited
Основные цвета : BT.709
Характеристики трансфера : BT.709
Коэффициенты матрицы : BT.709

Аудио
Идентификатор : 2
Формат : AC-3
Формат/Информация : Audio Coding 3
Идентификатор кодека : A_AC3
Продолжительность : 1 ч. 54 м.
Вид битрейта : Постоянный
Битрейт : 192 Кбит/сек
Каналы : 2 канала
Расположение каналов : Front: L R
Частота : 48,0 КГц
Частота кадров : 31,250 кадров/сек (1536 SPF)
Битовая глубина : 16 бит
Метод сжатия : С потерями
Размер потока : 157 Мбайт (7%)
ServiceKind/String : Complete Main
Default : Да
Forced : Нет
Скриншоты:


Все одноименные релизы в Клубе

Смотреть Online

http://moonwalk.cc/serial/047a1d0477a81e28b368e5b77ce9082c/iframe
Детали торрента:
Название:Посольство (2018) WEB-DL [H.264/1080p-LQ] (серии 1-14 из 14)
Дата добавления:12 Май 2018 07:56:20
Размер:9,59 GB
Раздают:72
Качают:5
Форум:Отечественные сериалы

All rights reserved © 2015-2018