TORRENTS43.COM

Скачать Otaku ni Koi wa Muzukashii | Wotakoi: Love is Hard for Otaku | Любовь - проблема для отаку [2018, TV, 5 из 11] HDTVRip 720p raw


ヲタクに恋は難しい | Otaku ni Koi wa Muzukashii | Wotakoi: Love is Hard for Otaku | Любовь - проблема для отаку
Тип: TV
Жанр: комедия, романтика, повседневность
Продолжительность: 11 эп. по 25 мин.
Количество серий: 5 из 11

Дата выпуска: c 13.04.2018 по 22.06.2018
Производство: Студия A-1 Pictures Inc.
Автор оригинала: Фудзита
Режиссер: Хирайкэ Ёсимаса

Ссылки: World-Art ANN AniDB MyAnimeList Сетка вещания

Описание:
Хиротака Нифудзи, геймер. Момосе Наруми, фудзёси. Эта парочка не видела друг друга со времён средней школы, но судьба свела их вновь в качестве коллег и соседей по офису. И вот пропустив после работы по стаканчику, они вдруг поняли, что между ними возможно нечто большее, чем просто дружба, и начали встречаться... Но любовь — штука сложная, а уж для отаку тем более.

Язык озвучки: Японский
Субтитры: Русские
Перевод: RizenTeam

Качество видео: HDTVRip
Видео: AVC (Main@L4.1), 1280x720 (16:9), ~23.976 fps, ~1416 kbps
Аудио: AAC LC, 2 ch, 48 kHz, ~210 kbps

Скриншоты:

Эпизоды:

1

Mediainfo:


General
Complete name : Otaku ni Koi wa Muzukashii\[Ohys-Raws] Otaku ni Koi wa Muzukashii - 01 (CX 1280x720 x264 AAC).mp4
Format : MPEG-4
Format profile : Base Media
Codec ID : isom (isom/avc1)
File size : 268 MiB
Duration : 23 min 0 s
Overall bit rate mode : Variable
Overall bit rate : 1 630 kb/s
Encoded date : UTC 2018-04-12 16:42:34
Tagged date : UTC 2018-04-12 16:42:34

Video
ID : 1
Format : AVC
Format/Info : Advanced Video Codec
Format profile : Main@L4.1
Format settings : CABAC / 4 Ref Frames
Format settings, CABAC : Yes
Format settings, ReFrames : 4 frames
Codec ID : avc1
Codec ID/Info : Advanced Video Coding
Duration : 23 min 0 s
Bit rate : 1 416 kb/s
Maximum bit rate : 8 236 kb/s
Width : 1 280 pixels
Height : 720 pixels
Display aspect ratio : 16:9
Frame rate mode : Constant
Frame rate : 23.976 (24000/1001) FPS
Color space : YUV
Chroma subsampling : 4:2:0
Bit depth : 8 bits
Scan type : Progressive
Bits/(Pixel*Frame) : 0.064
Stream size : 233 MiB (87%)
Writing library : x264 core 155 r2867+82 a249126 t_mod_Custom_2 [8-bit@all X86_64]
Encoding settings : cabac=1 / ref=3 / deblock=1:0:0 / analyse=0x1:0x111 / me=hex / subme=7 / psy=1 / fade_compensate=0.00 / psy_rd=1.00:0.00 / mixed_ref=1 / me_range=16 / chroma_me=1 / trellis=1 / 8x8dct=0 / cqm=0 / deadzone=21,11 / fast_pskip=1 / chroma_qp_offset=-2 / threads=18 / lookahead_threads=3 / sliced_threads=0 / nr=0 / decimate=1 / interlaced=0 / bluray_compat=0 / constrained_intra=0 / fgo=0 / bframes=3 / b_pyramid=2 / b_adapt=1 / b_bias=0 / direct=1 / weightb=1 / open_gop=0 / weightp=2 / keyint=240 / keyint_min=1 / scenecut=40 / intra_refresh=0 / rc_lookahead=40 / rc=crf / mbtree=1 / crf=20.0000 / qcomp=0.60 / qpmin=0:0:0 / qpmax=69:69:69 / qpstep=4 / ip_ratio=1.40 / aq=1:1.50 / aq-sensitivity=10.00 / aq-factor=1.00:1.00:1.00 / aq2=0 / aq3=0
Encoded date : UTC 2018-04-12 16:42:34
Tagged date : UTC 2018-04-12 16:42:36
Color range : Limited
Color primaries : BT.709
Transfer characteristics : BT.709
Matrix coefficients : BT.709

Audio
ID : 2
Format : AAC
Format/Info : Advanced Audio Codec
Format profile : LC
Codec ID : mp4a-40-2
Duration : 23 min 0 s
Bit rate mode : Variable
Bit rate : 210 kb/s
Maximum bit rate : 256 kb/s
Channel(s) : 2 channels
Channel positions : Front: L R
Sampling rate : 48.0 kHz
Frame rate : 46.875 FPS (1024 SPF)
Compression mode : Lossy
Stream size : 34.6 MiB (13%)
Language : Japanese
Encoded date : UTC 2018-04-12 16:35:40
Tagged date : UTC 2018-04-12 16:42:36
Детали торрента:
Название:Otaku ni Koi wa Muzukashii | Wotakoi: Love is Hard for Otaku | Любовь - проблема для отаку [2018, TV, 5 из 11] HDTVRip 720p raw
Дата добавления:10 Май 2018 23:22:43
Размер:1,33 GB
Раздают:7
Качают:4
Форум:Онгоинги

All rights reserved © 2015-2018