TORRENTS43.COM

Скачать Мистериум: Охотники на фазанов / Fasandræberne (2014) WEB-DLRip [H.264/1080p-LQ]


Мистериум: Охотники на фазанов / Fasandræberne (2014) WEB-DLRip [H.264/1080p-LQ]
Производство: Дания, Германия, Швеция
Жанр: Детектив, Триллер, Криминал

Режиссер: Миккель Нёргор
Продюсер: Йонас Баггер, Петер Ольбек Йенсен, Луиза Вест
Актеры: Николай Ли Каас, Фарес Фарес, Йохан Филип Асбек, Давид Денсик, Даница Чурчич, Сара-Софи Бусснина, Джохэнн Луиз Шмидт, Марко Ильсё, Беате Билле, Питер Кристофферсен

Описание:
В 1994 году двое детей-близнецов были найдены зверски убитыми в летнем загородном доме. Ряд фактов указывал на причастность к делу группы студентов, но расследование было прекращено после того, как местный отшельник признал себя виновным в этом инциденте.
20 лет спустя это дело попадает на стол Карла Мёрка, который начинает подозревать, что в нём что-то не так.


Возраст: 18+ (зрителям, достигшим 18 лет. запрещено для детей)

Продолжительность: 01:54:00
Качество видео: WEB-DLRip
Перевод: Многоголосый закадровый
Субтитры: отсутствуют

Видео: AVC/H.264, 1920x816, ~5133 kbps
Аудио: AAC, 2 ch, 255 kbps

Mediainfo:


General
Complete name : D:\@FILMS@\Misterium.Ohotniki.na.fazanov.2014.mp4
Format : MPEG-4
Format profile : Base Media
Codec ID : isom (isom/iso2/avc1/mp41)
File size : 4.31 GiB
Duration : 1 h 54 min
Overall bit rate : 5 374 kb/s
Writing application : Lavf55.33.100

Video
ID : 1
Format : AVC
Format/Info : Advanced Video Codec
Format profile : High@L4
Format settings : CABAC / 4 Ref Frames
Format settings, CABAC : Yes
Format settings, ReFrames : 4 frames
Codec ID : avc1
Codec ID/Info : Advanced Video Coding
Duration : 1 h 54 min
Bit rate : 5 120 kb/s
Width : 1 920 pixels
Height : 816 pixels
Display aspect ratio : 2.35:1
Frame rate mode : Constant
Frame rate : 25.000 FPS
Color space : YUV
Chroma subsampling : 4:2:0
Bit depth : 8 bits
Scan type : Progressive
Bits/(Pixel*Frame) : 0.131
Stream size : 4.10 GiB (95%)
Writing library : x264 core 142
Encoding settings : cabac=1 / ref=3 / deblock=1:0:0 / analyse=0x3:0x113 / me=hex / subme=7 / psy=1 / psy_rd=1.00:0.00 / mixed_ref=1 / me_range=16 / chroma_me=1 / trellis=1 / 8x8dct=1 / cqm=0 / deadzone=21,11 / fast_pskip=1 / chroma_qp_offset=-2 / threads=36 / lookahead_threads=6 / sliced_threads=0 / nr=0 / decimate=1 / interlaced=0 / bluray_compat=0 / constrained_intra=0 / bframes=6 / b_pyramid=2 / b_adapt=1 / b_bias=0 / direct=1 / weightb=1 / open_gop=0 / weightp=2 / keyint=50 / keyint_min=26 / scenecut=0 / intra_refresh=0 / rc_lookahead=40 / rc=2pass / mbtree=1 / bitrate=5120 / ratetol=1.0 / qcomp=0.60 / qpmin=0 / qpmax=69 / qpstep=4 / cplxblur=20.0 / qblur=0.5 / vbv_maxrate=7680 / vbv_bufsize=20480 / nal_hrd=none / filler=0 / ip_ratio=1.40 / aq=1:1.00
Language : English
Tagged date : UTC 2018-03-16 18:46:53

Audio
ID : 2
Format : AAC
Format/Info : Advanced Audio Codec
Format profile : LC
Codec ID : mp4a-40-2
Duration : 1 h 54 min
Duration_LastFrame : 43 ms
Bit rate mode : Constant
Bit rate : 256 kb/s
Channel(s) : 2 channels
Channel positions : Front: L R
Sampling rate : 48.0 kHz
Frame rate : 46.875 FPS (1024 SPF)
Compression mode : Lossy
Stream size : 210 MiB (5%)
Language : English
Default : Yes
Alternate group : 1
Tagged date : UTC 2018-03-16 18:46:53
Скриншоты:


Все одноименные релизы в Клубе
Детали торрента:
Название:Мистериум: Охотники на фазанов / Fasandræberne (2014) WEB-DLRip [H.264/1080p-LQ]
Дата добавления:09 Май 2018 23:15:40
Размер:4,31 GB
Раздают:51
Качают:1
Форум:Зарубежные Фильмы (HD*Rip/LQ, DVDRip, SATRip, VHSRip)

All rights reserved © 2015-2018