TORRENTS43.COM

Скачать Невероятные проекты древнего мира / Ancient Impossible (2014) HDTVRip (Сезон 1, серий 10 из 10)


Невероятные проекты древнего мира / Ancient Impossible (2014) HDTVRip (Сезон 1, серий 10 из 10)
Производство: США, Wild Dream Films
Жанр: Документальный, познавательный, история, исследование

Режиссер: Стюарт Кларк

Описание:
Многие сегодняшние достижения науки и техники были изобретены много веков назад: от колоссальных построек и чудес инженерной мысли до выдающихся технологий, которые до сих пор остаются непревзойденными. Авторы цикла Ancient Impossible, пытаются объяснить, каким образом наши предки, не имея современных научно-технических средств, могли создавать все то, чем мы сегодня восхищаемся.



Релиз от: alf62
Продолжительность: 10 х ~ 00:40:15
Качество видео: HDTVRip
Перевод: Документальный дубляж (голос рассказчика - дубляж, интервью - одноголосый закадровый перевод)

Видео: Xvid, 720x400, ~1900 Kbps
Аудио: AC3, 2 ch, 192 Kbps

Список выпусков/серий

01. Невероятное оружие / Ultimate Weapons
В глубокой древности люди построили пушку, стрелявшую с помощью паровой энергии. Это рассказ о древних боевых судах, которые были мощнее современных авианосцев, и о лучах смерти, сжигавших неприятельские корабли.

02. Передвигая горы / Moving Mountains
Как древние египтяне перевозили 1000-тонные обелиски и как римляне перемещали тяжелые предметы в храмах в Баальбеке.

03. Монументы-исполины / Monster Monuments
Огромный памятник, вырезанный из сплошного камня и высокого купола, - это инженерные достижения тысячи лет назад, которые трудно объяснить. Великая пирамида была самым высоким зданием в мире более 4000 лет.

04. Военные технологии / Warrior Tech
Современные солдаты имеют самую современную боевую технику. В эпизоде рассказывается о нападении и оборонительном оружии, используемом древними воинами.

05. Древние Эйнштейны / Ancient Einsteins
Об Архимеде, который заставил воду течь в гору, о Филоне - создателе первого робота, о Ктезибии, который изобрел пневматику, и о Героне Александрийском, создавшем паровой двигатель, автоматические двери и торговые автоматы.

06. Мощные инструменты / Power Tools
Удивительные инструменты появились тысячи лет назад. Многие технологии забывались и терялись в веках, а потом изобретались заново. В этой серии мы расскажем об удивительных технологиях древнего мира.

07. Корабли-гиганты / Greatest Ships
Как выглядел самый большой военный корабль в древнем мире и что сделало его чрезвычайно быстрым? Некоторые из величайших в истории кораблей были построены тысячи лет назад. В этой серии мы расскажем о высокотехнологичных боевых кораблях древности.

08. Грандиозные сооружения / Biggest Buildings
Думаете, крупные фабрики - современное изобретение? Вы ошибаетесь! В древности у людей уже были технологии, позволявшие создавать гигантские фабрики. Невероятно, но факт!

09. Римская империя / Roman Empire
Авторы рассматривают древние тексты в поисках нетипичных технических решений из римских времен. Среди них есть конная повозка стреляющая стрелами, которая могла быть прототипом танков.

10. Инженерное честолюбие / Extreme Engineering
Древние люди переправляли огромные армии через глубокие реки, добывали нефть без буровых установок и построили резервуар для воды объемом в миллион кубических литров.

Mediainfo:


Общее
Полное имя : E:\Запись\Невероятные технологии древних\Ancient.Impossible.2014.XviD.HDTVRip.alf62\01.Ultimate.Weapons.2014.XviD.HDTVRip.alf62.avi
Формат : AVI
Формат/Информация : Audio Video Interleave
Размер файла : 608 Мбайт
Продолжительность : 40 м.
Общий поток : 2101 Кбит/сек
Программа кодирования : VirtualDubMod 1.5.10.3 | www.virtualdub-fr.org || (build 2550/release)
Библиотека кодирования : VirtualDubMod build 2550/release

Видео
Идентификатор : 0
Формат : MPEG-4 Visual
Профиль формата : Advanced Simple@L5
Параметр BVOP формата : 2
Параметр QPel формата : Нет
Параметр GMC формата : Без точки перехода
Параметр матрицы формата : Default (MPEG)
Идентификатор кодека : XVID
Идентификатор кодека/Подсказка : XviD
Продолжительность : 40 м.
Битрейт : 1900 Кбит/сек
Ширина : 720 пикселей
Высота : 400 пикселей
Соотношение сторон : 16:9
Частота кадров : 25,000 кадров/сек
Цветовое пространство : YUV
Субдискретизация насыщенности : 4:2:0
Битовая глубина : 8 бит
Тип развёртки : Прогрессивная
Метод сжатия : С потерями
Бит/(Пиксели*Кадры) : 0.264
Размер потока : 550 Мбайт (90%)
Библиотека кодирования : XviD 73

Аудио
Идентификатор : 1
Формат : AC-3
Формат/Информация : Audio Coding 3
Расширение режима : CM (complete main)
Параметр Endianness формата : Big
Идентификатор кодека : 2000
Продолжительность : 40 м.
Вид битрейта : Постоянный
Битрейт : 192 Кбит/сек
Каналы : 2 канала
Расположение каналов : Front: L R
Частота : 48,0 КГц
Битовая глубина : 16 бит
Метод сжатия : С потерями
Размер потока : 55,6 Мбайт (9%)
Выравнивание : Разделение по промежуткам
Продолжительность промежутка : 40 мс. (1,00 видеокадр)
Время предзагрузки промежутка : 500 мс.
Скриншоты:

Дополнительные скриншоты:



Все одноименные релизы в Клубе
Детали торрента:
Название:Невероятные проекты древнего мира / Ancient Impossible (2014) HDTVRip (Сезон 1, серий 10 из 10)
Дата добавления:10 Май 2018 19:53:57
Размер:5,91 GB
Раздают:12
Качают:2
Форум:History Channel

All rights reserved © 2015-2018