TORRENTS43.COM

Скачать Элементарно / Elementary (2018) WEB-DLRip (сезон 6, серии 1-3 из 21) LostFilm (обновляемая)


Элементарно / Elementary (2018) WEB-DLRip (сезон 6, серии 1-3 из 21)
«New Holmes. New Watson. New York»

Производство: США / Hill of Beans Productions, Timberman-Beverly Productions, CBS Television Studios
Жанр: драма, криминал, детектив

Режиссер: Рон Фортунато, Люси Лью, Джонни Ли Миллер
Актеры: Джонни Ли Миллер, Люси Лью, Эйдан Куинн, Джон Майкл Хилл, Джордан Гелбер, Роберт Капрон, Алия Атталла и др.

Описание:
Новая интерпретация классического произведения Артура Конана Дойла о Шерлоке Холмсе. Но сюжет сериала будет развиваться не по классическому сценарию, главный герой поменяет не только прописку, он переедет из Лондона в Нью-Йорк, но и эпоху, сюжет будет разворачиваться в наше время. Также зрителей ждет еще один сюрприз, теперь у Шерлока будет не помощник в лице Доктора Ватсона а помощница, роль которой досталось обворожительной Люси Лью. «Элементарно» - современная криминальная драма о дуэте детектива Шерлока Холмса и доктора Джоан Ватсон, который решает самые запутанные дела в полицейском департаменте Нью-Йорка.


Возраст: 16+ (зрителям, достигшим 16 лет)

Продолжительность: ~00:43:00 серия
Качество видео: WEB-DLRip
Перевод: Многоголосый закадровый, профессиональный - LostFilm

Видео: XviD, 720x400 (16:9), ~1500 kbps
Аудио 1: MP3, 48,0 kHz, 2 ch, 128 kbps — русский, многоголосый закадровый
Аудио 2: MP3, 48,0 kHz, 2 ch, 128 kbps — английский

MediaInfo


Общее
Полное имя : D:\Элементарно (сезон 6) Elementary (2018) WEB-DLRip - LostFilm\Elementary.S06E01.WEB-DLRip.Rus.Eng.DV.LostFilm.avi
Формат : AVI
Формат/Информация : Audio Video Interleave
Размер файла : 513 Мбайт
Продолжительность : 40 м. 33 с.
Общий поток : 1770 Кбит/сек
Название фильма : Elementary.S06E01.WEB-DLRip.Rus.Eng.DV.LostFilm / torrents43.com />Программа кодирования : VirtualDubModRus 1.5.10.2 (build 2542/release)
Библиотека кодирования : VirtualDubMod build 2542/release

Видео
Идентификатор : 0
Формат : MPEG-4 Visual
Профиль формата : Advanced Simple@L5
Настройки формата : BVOP2
Параметр BVOP формата : 2
Параметр QPel формата : Нет
Параметр GMC формата : Без точки перехода
Параметр матрицы формата : Default (H.263)
Идентификатор кодека : XVID
Идентификатор кодека/Подсказка : XviD
Продолжительность : 40 м. 33 с.
Битрейт : 1500 Кбит/сек
Ширина : 720 пикселей
Высота : 400 пикселей
Соотношение сторон : 16:9
Частота кадров : 23,976 (24000/1001) кадра/сек
Цветовое пространство : YUV
Субдискретизация насыщенности : 4:2:0
Битовая глубина : 8 бит
Тип развёртки : Прогрессивная
Метод сжатия : С потерями
Бит/(Пиксели*Кадры) : 0.217
Размер потока : 435 Мбайт (85%)
Заголовок : Rip by DriverV / torrents43.com />Библиотека кодирования : XviD 67

Аудио #1
Идентификатор : 1
Формат : MPEG Audio
Версия формата : Version 1
Профиль формата : Layer 3
Настройки формата : Joint stereo / MS Stereo
Идентификатор кодека : 55
Идентификатор кодека/Подсказка : MP3
Продолжительность : 40 м. 33 с.
Вид битрейта : Постоянный
Битрейт : 128 Кбит/сек
Каналы : 2 канала
Частота : 48,0 КГц
Метод сжатия : С потерями
Размер потока : 37,1 Мбайт (7%)
Выравнивание : Соединение по промежуткам
Продолжительность промежутка : 42 мс. (1,00 видеокадр)
Время предзагрузки промежутка : 504 мс.

Аудио #2
Идентификатор : 2
Формат : MPEG Audio
Версия формата : Version 1
Профиль формата : Layer 3
Настройки формата : Joint stereo / MS Stereo
Идентификатор кодека : 55
Идентификатор кодека/Подсказка : MP3
Продолжительность : 40 м. 33 с.
Вид битрейта : Постоянный
Битрейт : 128 Кбит/сек
Каналы : 2 канала
Частота : 48,0 КГц
Метод сжатия : С потерями
Размер потока : 37,1 Мбайт (7%)
Выравнивание : Соединение по промежуткам
Продолжительность промежутка : 42 мс. (1,00 видеокадр)
Время предзагрузки промежутка : 504 мс.

Список серий

01. An Infinite Capacity for Taking Pains / Бесконечная способность испытывать боль
02. Once You've Ruled Out God / Когда ты исключил Бога
03. Pushing Buttons / Нажимая на кнопки

Дополнительная информация

"Чистый" кадр. Вступительная заставка и логотип LostFilm отсутствуют.

Раздача ведётся путём добавления новых серий

Раздача ведётся путём добавления новых серий; при каждом добавлении создаётся новый торрент. Чтобы начать докачку новой серии, пользователям необходимо сделать следующее:
(1) остановить скачивание,
(2) удалить старый торрент у себя из клиента (старые серии удалять не надо),
(3) скачать новый торрент и запустить его у себя в клиенте вместо старого, при этом указать клиенту путь в старую папку куда и должно происходить скачивание новых серий.

Ваш клиент при этом должен произвести хеширование (проверку) старой папки (если не производит сам - помогите ему сделать это), и будет докачивать только те серии которых у вас ещё нет. Старые серии при этом не удаляются, а продолжают раздаваться!

Eсли вы уже удалили старые серии, то предотвратить повторную закачку старых серий можно, отжав галочку в соответствующих местах при запуске нового торрента. По возможности, желательно не удалять старые серии как можно дольше чтобы релизёр не столько продолжал раздавать старые серии, а смог сконцентрироваться на новых.
Скриншоты:



Все одноименные релизы в Клубе

Смотреть Online

http://moonwalk.cc/serial/c6fdbad6e41968005e9d7c6abd606508/iframe
Детали торрента:
Название:Элементарно / Elementary (2018) WEB-DLRip (сезон 6, серии 1-3 из 21) LostFilm (обновляемая)
Дата добавления:17 Май 2018 22:54:16
Размер:1,56 GB
Раздают:90
Качают:17
Форум:Зарубежные сериалы

All rights reserved © 2015-2018