TORRENTS43.COM

Скачать The New Seekers - The Best Of The New Seekers (2000) [FLAC|Lossless|image + .cue] <Pop, Ballad, Easy Listening>


The New Seekers - The Best Of The New Seekers (2000)
Жанр: Pop, Ballad, Easy Listening
Издание: NST039
Источник: oldvinil как бСССР
Продолжительность: 00:56:59

Кодек: FLAC
Битрейт: Lossless
Тип рипа: image + .cue

Треклист:
1. I get a little sentimental over you
2. You won't find another foll like me
3. Fire and rain
4. All Right My Love
5. Brand new day
6. Come on world
7. Crying time
8. Dedicated to the one I love
9. Everything's changed
10. Vado via
11. Here there and everywhere
12. Look look
13. Me and my guitar
14. Melting pot
15. Just An Old Fashioned Love Song
16. The greatest song I ever heard
17. You're the one
18. Brother love's traveling salvation show
19. Friends Medley: Friends, With a little help from my friends

Отчёт EAC:


Exact Audio Copy V1.3 from 2. September 2016

EAC extraction logfile from 11. May 2018, 8:08

The New Seekers / The Best Of The New Seekers

Used drive : ASUS DRW-24B3ST Adapter: 1 ID: 1

Read mode : Secure
Utilize accurate stream : Yes
Defeat audio cache : Yes
Make use of C2 pointers : No

Read offset correction : 6
Overread into Lead-In and Lead-Out : No
Fill up missing offset samples with silence : Yes
Delete leading and trailing silent blocks : No
Null samples used in CRC calculations : Yes
Used interface : Native Win32 interface for Win NT & 2000

Used output format : User Defined Encoder
Selected bitrate : 768 kBit/s
Quality : High
Add ID3 tag : No
Command line compressor : C:\Program Files (x86)\Exact Audio Copy\FLAC\FLAC.EXE
Additional command line options : -8 -V -T "TITLE=%title%" -T "ARTIST=%artist%" -T "ALBUMARTIST=%albumartist%" -T "ALBUM=%albumtitle%" -T "DATE=%year%" -T "TRACKNUMBER=%tracknr%" -T "TRACKTOTAL=%numtracks%" -T "GENRE=%genre%" -T "COMMENT=%comment%" -T "PERFORMER=%albuminterpret%" -T "COMPOSER=%composer%" %source% -o %dest%

TOC of the extracted CD

Track | Start | Length | Start sector | End sector
---------------------------------------------------------
1 | 0:00.32 | 2:58.08 | 32 | 13389
2 | 2:58.40 | 3:12.57 | 13390 | 27846
3 | 6:11.22 | 3:45.03 | 27847 | 44724
4 | 9:56.25 | 2:58.50 | 44725 | 58124
5 | 12:55.00 | 2:31.40 | 58125 | 69489
6 | 15:26.40 | 2:56.10 | 69490 | 82699
7 | 18:22.50 | 2:45.42 | 82700 | 95116
8 | 21:08.17 | 2:56.65 | 95117 | 108381
9 | 24:05.07 | 3:22.40 | 108382 | 123571
10 | 27:27.47 | 3:17.48 | 123572 | 138394
11 | 30:45.20 | 2:34.00 | 138395 | 149944
12 | 33:19.20 | 2:52.67 | 149945 | 162911
13 | 36:12.12 | 2:33.40 | 162912 | 174426
14 | 38:45.52 | 3:37.33 | 174427 | 190734
15 | 42:23.10 | 2:48.60 | 190735 | 203394
16 | 45:11.70 | 3:04.65 | 203395 | 217259
17 | 48:16.60 | 2:44.60 | 217260 | 229619
18 | 51:01.45 | 3:26.27 | 229620 | 245096
19 | 54:27.72 | 2:31.10 | 245097 | 256431

Range status and errors

Selected range

Filename F:\бСССР\0 NEW\The New Seekers - The Best Of The New Seekers.wav

Peak level 100.0 %
Extraction speed 8.0 X
Range quality 100.0 %
Test CRC E001480D
Copy CRC E001480D
Copy OK

No errors occurred

AccurateRip summary

Track 1 accurately ripped (confidence 1) [F9FFDA32] (AR v2)
Track 2 accurately ripped (confidence 1) [6364E18D] (AR v2)
Track 3 accurately ripped (confidence 1) [9E19A37E] (AR v2)
Track 4 accurately ripped (confidence 1) [6990A1CD] (AR v2)
Track 5 accurately ripped (confidence 1) [3DB55BA7] (AR v2)
Track 6 accurately ripped (confidence 1) [B8E1910B] (AR v2)
Track 7 accurately ripped (confidence 1) [A266810F] (AR v2)
Track 8 accurately ripped (confidence 1) [CA8ABB28] (AR v2)
Track 9 accurately ripped (confidence 1) [A9EE00DD] (AR v2)
Track 10 accurately ripped (confidence 1) [D1F706DD] (AR v2)
Track 11 accurately ripped (confidence 1) [0A781383] (AR v2)
Track 12 accurately ripped (confidence 1) [6D5438FA] (AR v2)
Track 13 accurately ripped (confidence 1) [0F4D75A6] (AR v2)
Track 14 accurately ripped (confidence 1) [EE45DF39] (AR v2)
Track 15 accurately ripped (confidence 1) [31171466] (AR v2)
Track 16 accurately ripped (confidence 1) [6C6219DE] (AR v2)
Track 17 accurately ripped (confidence 1) [04F721F1] (AR v2)
Track 18 accurately ripped (confidence 1) [640D709D] (AR v2)
Track 19 accurately ripped (confidence 1) [D9EF4E8C] (AR v2)

All tracks accurately ripped

End of status report

---- CUETools DB Plugin V2.1.6

[CTDB TOCID: dFrX_uVvo5O0.VtEgLRrBh3.7Lk-] found
Submit result: dFrX_uVvo5O0.VtEgLRrBh3.7Lk- has been confirmed
Track | CTDB Status
1 | (2/2) Accurately ripped
2 | (2/2) Accurately ripped
3 | (2/2) Accurately ripped
4 | (2/2) Accurately ripped
5 | (2/2) Accurately ripped
6 | (2/2) Accurately ripped
7 | (2/2) Accurately ripped
8 | (2/2) Accurately ripped
9 | (2/2) Accurately ripped
10 | (2/2) Accurately ripped
11 | (2/2) Accurately ripped
12 | (2/2) Accurately ripped
13 | (2/2) Accurately ripped
14 | (2/2) Accurately ripped
15 | (2/2) Accurately ripped
16 | (2/2) Accurately ripped
17 | (2/2) Accurately ripped
18 | (2/2) Accurately ripped
19 | (2/2) Accurately ripped

==== Log checksum 4A89A9060BE878A3D1539978F0329E2AD27662B6B3AE4C19A1C7804CE2CD1302 ====

Cue Sheet (.cue):


REM GENRE Pop
REM DATE 2000
REM DISCID 160D5B13
REM COMMENT "ExactAudioCopy v1.3"
PERFORMER "The New Seekers"
TITLE "The Best Of The New Seekers"
REM COMPOSER ""
FILE "The New Seekers - The Best Of The New Seekers.flac" WAVE
TRACK 01 AUDIO
TITLE "I Get A Little Sentimental Over You (Macaulay-Stephens)"
PERFORMER "The New Seekers"
REM COMPOSER ""
INDEX 00 00:00:00
INDEX 01 00:00:32
TRACK 02 AUDIO
TITLE "You Won't Find Another Fool Like Me (Macaulay-Stephens)"
PERFORMER "The New Seekers"
REM COMPOSER ""
INDEX 01 02:58:40
TRACK 03 AUDIO
TITLE "Fire And Rain - My Sweet Lord- Day By Day (medley)"
PERFORMER "The New Seekers"
REM COMPOSER ""
INDEX 00 02:58:40
INDEX 01 06:11:22
TRACK 04 AUDIO
TITLE "All Right My Love (Potger)"
PERFORMER "The New Seekers"
REM COMPOSER ""
INDEX 00 02:58:40
INDEX 01 09:56:25
TRACK 05 AUDIO
TITLE "A Brand New Song (Carry-Williams)"
PERFORMER "The New Seekers"
REM COMPOSER ""
INDEX 00 02:58:40
INDEX 01 12:55:00
TRACK 06 AUDIO
TITLE "Come On World (Hugg)"
PERFORMER "The New Seekers"
REM COMPOSER ""
INDEX 00 02:58:40
INDEX 01 15:26:40
TRACK 07 AUDIO
TITLE "Crying Time (Charles)"
PERFORMER "The New Seekers"
REM COMPOSER ""
INDEX 00 02:58:40
INDEX 01 18:22:50
TRACK 08 AUDIO
TITLE "Dedicated To The One I Love (Bass-Pauling)"
PERFORMER "The New Seekers"
REM COMPOSER ""
INDEX 00 02:58:40
INDEX 01 21:08:17
TRACK 09 AUDIO
TITLE "Everything's Changed (Macaulay-Stephens)"
PERFORMER "The New Seekers"
REM COMPOSER ""
INDEX 00 02:58:40
INDEX 01 24:05:07
TRACK 10 AUDIO
TITLE "Vado Via (Riccardi-Albertelli)"
PERFORMER "The New Seekers"
REM COMPOSER ""
INDEX 00 02:58:40
INDEX 01 27:27:47
TRACK 11 AUDIO
TITLE "Here There And Everywhere (Lennon-McCartney)"
PERFORMER "The New Seekers"
REM COMPOSER ""
INDEX 00 02:58:40
INDEX 01 30:45:20
TRACK 12 AUDIO
TITLE "Look What They've Done To My Song (Safka)"
PERFORMER "The New Seekers"
REM COMPOSER ""
INDEX 00 02:58:40
INDEX 01 33:19:20
TRACK 13 AUDIO
TITLE "Me And My Guitar (Williams)"
PERFORMER "The New Seekers"
REM COMPOSER ""
INDEX 00 02:58:40
INDEX 01 36:12:12
TRACK 14 AUDIO
TITLE "Melting Pot (Cook-Greenaway)"
PERFORMER "The New Seekers"
REM COMPOSER ""
INDEX 00 02:58:40
INDEX 01 38:45:52
TRACK 15 AUDIO
TITLE "An Old Fashioned Love Song (Williams)"
PERFORMER "The New Seekers"
REM COMPOSER ""
INDEX 00 02:58:40
INDEX 01 42:23:10
TRACK 16 AUDIO
TITLE "Greatest Love Song I've Ever Heard (Holler)"
PERFORMER "The New Seekers"
REM COMPOSER ""
INDEX 00 02:58:40
INDEX 01 45:11:70
TRACK 17 AUDIO
TITLE "You're The One (Hatch-Trent)"
PERFORMER "The New Seekers"
REM COMPOSER ""
INDEX 00 02:58:40
INDEX 01 48:16:60
TRACK 18 AUDIO
TITLE "Brother Love's Travelling Salvation Show (Neil Diamond)"
PERFORMER "The New Seekers"
REM COMPOSER ""
INDEX 00 02:58:40
INDEX 01 51:01:45
TRACK 19 AUDIO
TITLE "Friends Medley: Friends (Klingman-Linhart) & With A Little Help From My Frien..."
PERFORMER "The New Seekers"
REM COMPOSER ""
INDEX 00 02:58:40
INDEX 01 54:27:72

Отчёт auCDtect Task manager:


-----------------------

DON'T MODIFY THIS FILE

-----------------------

PERFORMER: auCDtect Task Manager, ver. 1.6.0 RC1 build 1.6.0.1
Copyright (c) 2008-2010 y-soft. All rights reserved
http://y-soft.org

ANALYZER: auCDtect: CD records authenticity detector, version 0.8.2
Copyright (c) 2004 Oleg Berngardt. All rights reserved.
Copyright (c) 2004 Alexander Djourik. All rights reserved.

FILE: The New Seekers - The Best Of The New Seekers.flac
Size: 344359236 Hash: 8AE2C1645FD6CA466B4FEBD376847B0B Accuracy: -m0
Conclusion: CDDA 100%
Signature: 462C091997C1A2AF4059191C1D7F7AB3B14E1E94
YouTubeYouTube YouTube
Детали торрента:
Название:The New Seekers - The Best Of The New Seekers (2000) [FLAC|Lossless|image + .cue] <Pop, Ballad, Easy Listening>
Дата добавления:11 Май 2018 13:26:43
Размер:348 MB
Раздают:8
Качают:0
Форум:Зарубежная поп-музыка (Lossless)

All rights reserved © 2015-2018