TORRENTS43.COM

Скачать NG: Bugatti Chiron: Улучшая совершенство / Bugatti Chiron: Super Car Build (2017) HDTVRip [H.264/720p-LQ]


Bugatti Chiron: Улучшая совершенство / Bugatti Chiron: Super Car Build (2017) HDTVRip [H.264/720p-LQ]
Производство: США, National Geographic Channel
Жанр: Документальный

Режиссер: Дилан Уайсс

Описание:
Bugatti Chiron — гиперкар компании Bugatti (входит в концерн Volkswagen), официально представлен публике в 2016 году. Стоимость автомобиля в России составляет 220 млн. рублей. Модель получила название в честь автогонщика Луи-Александра Широна, который выступал за марку с 1928 по 1958 год. Название модели имеет несколько вариантов прочтения: «Хирон» — греческое имя кентавра, учителя Ахилла и Геракла; «Кайрон» — название используется в СМИ. В Евросоюзе цены на модель в 2016 году начинались от €2,5 миллиона евро. Базовая цена машины достигает £1,9 миллиона фунтов стерлингов, а средняя стоимость опций составляет £250 тысяч фунтов. Полного бака бензина (100 л.) хватит для движения в течение 9 минут на максимальной заявленной скорости (около 463 км/ч). Для примера, Veyron использует тот же объём в течение 12 минут (407 км/ч). Автомобиль, как и его предшественник, эксклюзивно комплектуется шинами MICHELIN. Стоимость комплекта - 42 тысячи долларов.

Релиз от: Wilmots
Продолжительность: 00:44:00
Качество видео: HDTVRip
Перевод: Одноголосый закадровый, профессиональный (Велес)
Субтитры: отсутствуют

Видео: AVC/H.264, 1280х720, ~3040 kbps
Аудио#1: AC3, 2 ch, 192 Kbps | Русский (текст читал: Станислав Войнич)
Аудио#2: AC3, 2 ch, 192 Kbps | Английский

Mediainfo:


Общее
Уникальный идентификатор : 307792804493953106284337788852808544880 (0xE78EBCE5FA526B75D9F9252006ED7270)
Полное имя : F:\КИНО\Bugatti.Chiron.Super.Car.Build.HDTVRip.720p.AVC.mkv
Формат : Matroska
Версия формата : Version 4 / Version 2
Размер файла : 1,05 Гбайт
Продолжительность : 44 м. 2 с.
Общий поток : 3426 Кбит/сек
Дата кодирования : UTC 2018-04-09 12:14:41
Программа кодирования : mkvmerge v22.0.0 ('At The End Of The World') 64-bit
Библиотека кодирования : libebml v1.3.5 + libmatroska v1.4.8

Видео
Идентификатор : 1
Формат : AVC
Формат/Информация : Advanced Video Codec
Профиль формата : High@L4.1
Настройки формата : CABAC / 5 Ref Frames
Параметр CABAC формата : Да
Параметр RefFrames формата : 5 кадров
Идентификатор кодека : V_MPEG4/ISO/AVC
Продолжительность : 44 м. 2 с.
Битрейт : 3040 Кбит/сек
Ширина : 1280 пикселей
Высота : 720 пикселей
Соотношение сторон : 16:9
Режим частоты кадров : Постоянный
Частота кадров : 25,000 кадров/сек
Цветовое пространство : YUV
Субдискретизация насыщенности : 4:2:0
Битовая глубина : 8 бит
Тип развёртки : Прогрессивная
Бит/(Пиксели*Кадры) : 0.132
Размер потока : 958 Мбайт (89%)
Библиотека кодирования : x264 core 148 r2744 b97ae06
Настройки программы : cabac=1 / ref=5 / deblock=1:-3:-3 / analyse=0x3:0x133 / me=umh / subme=9 / psy=1 / psy_rd=1.00:0.00 / mixed_ref=1 / me_range=16 / chroma_me=1 / trellis=1 / 8x8dct=1 / cqm=0 / deadzone=21,11 / fast_pskip=0 / chroma_qp_offset=-2 / threads=6 / lookahead_threads=1 / sliced_threads=0 / nr=0 / decimate=1 / interlaced=0 / bluray_compat=0 / constrained_intra=0 / bframes=3 / b_pyramid=2 / b_adapt=1 / b_bias=0 / direct=3 / weightb=1 / open_gop=0 / weightp=2 / keyint=250 / keyint_min=25 / scenecut=40 / intra_refresh=0 / rc_lookahead=50 / rc=crf / mbtree=1 / crf=19.0 / qcomp=0.60 / qpmin=10 / qpmax=51 / qpstep=4 / ip_ratio=1.40 / aq=1:1.00
Default : Да
Forced : Нет
Цветовой диапазон : Limited
Основные цвета : BT.709
Характеристики трансфера : BT.709
Коэффициенты матрицы : BT.709

Аудио #1
Идентификатор : 2
Формат : AC-3
Формат/Информация : Audio Coding 3
Идентификатор кодека : A_AC3
Продолжительность : 44 м. 2 с.
Вид битрейта : Постоянный
Битрейт : 192 Кбит/сек
Каналы : 2 канала
Расположение каналов : Front: L R
Частота : 48,0 КГц
Частота кадров : 31,250 кадров/сек (1536 SPF)
Битовая глубина : 16 бит
Метод сжатия : С потерями
Размер потока : 60,5 Мбайт (6%)
Язык : Russian
ServiceKind/String : Complete Main
Default : Да
Forced : Нет

Аудио #2
Идентификатор : 3
Формат : AC-3
Формат/Информация : Audio Coding 3
Идентификатор кодека : A_AC3
Продолжительность : 44 м. 2 с.
Вид битрейта : Постоянный
Битрейт : 192 Кбит/сек
Каналы : 2 канала
Расположение каналов : Front: L R
Частота : 48,0 КГц
Частота кадров : 31,250 кадров/сек (1536 SPF)
Битовая глубина : 16 бит
Метод сжатия : С потерями
Размер потока : 60,5 Мбайт (6%)
Язык : English
ServiceKind/String : Complete Main
Default : Нет
Forced : Нет
Скриншоты:


Все одноименные релизы в Клубе
Детали торрента:
Название:NG: Bugatti Chiron: Улучшая совершенство / Bugatti Chiron: Super Car Build (2017) HDTVRip [H.264/720p-LQ]
Дата добавления:11 Май 2018 11:22:00
Размер:1,05 GB
Раздают:19
Качают:0
Форум:National Geographic

All rights reserved © 2015-2018