TORRENTS43.COM

Скачать BBC. Тайные правила современной жизни: Алгоритмы / The Secret Rules of Modern Living: Algorithms (2015) HDTV [H.264/1080i-LQ]


Тайные правила современной жизни: Алгоритмы / The Secret Rules of Modern Living: Algorithms (2015) HDTV [H.264/1080i-LQ]
Производство: BBC Scotland, The Open University
Жанр: Документальный, научно-познавательный

Режиссер: Дэвид Бриггс

Описание:
Алгоритмы знают, когда наполнять полки супермаркетов, предсказывать погоду, направлять руку хирурга, создавать произведение искусства и даже зажигать искру любви. Они повсюду, но большинство и не подозревают об их влиянии. Каковы тайные правила современной жизни?



Релиз от: DaVinci (Science)
Продолжительность: 00:58:16
Качество видео: HDTV
Перевод: Двуголосый закадровый, профессиональный (Da Vinci Learning)
Субтитры: отсутствуют

Видео: AVC/H.264, 1920x1080, ~5800 Kbps
Аудио#1: AC3, 2 ch, 192 Kbps | Русский
Аудио#2: AC3, 2 ch, 192 Kbps | Украинский
Аудио#3: AC3, 2 ch, 192 Kbps | Английский

Mediainfo:


Общее
Идентификатор : 1 (0x1)
Полное имя : F:\КИНО\The.Secret.Rules.of.Modern.Living.Algorithms.(2015).HDTV.1080i_Rus.Ukr.Eng_DaVinci.ts
Формат : MPEG-TS
Размер файла : 2,73 Гбайт
Продолжительность : 58 м. 16 с.
Режим общего битрейта : Переменный
Общий поток : 6715 Кбит/сек
Максимальный общий битрейт : 35,5 Мбит/сек

Видео
Идентификатор : 4113 (0x1011)
Идентификатор меню : 1 (0x1)
Формат : AVC
Формат/Информация : Advanced Video Codec
Профиль формата : High@L4
Настройки формата : CABAC / 3 Ref Frames
Параметр CABAC формата : Да
Параметр RefFrames формата : 3 кадра
Идентификатор кодека : 27
Продолжительность : 58 м. 16 с.
Вид битрейта : Переменный
Битрейт : 5802 Кбит/сек
Максимальный битрейт : 40,0 Мбит/сек
Ширина : 1920 пикселей
Высота : 1080 пикселей
Соотношение сторон : 16:9
Частота кадров : 25,000 кадров/сек
Стандарт вещания : Component
Цветовое пространство : YUV
Субдискретизация насыщенности : 4:2:0
Битовая глубина : 8 бит
Тип развёртки : Чересстрочная
Метод сохранения типа развёртки : Раздельные поля
Порядок развёртки : Верхнее поле первое
Бит/(Пиксели*Кадры) : 0.112
Размер потока : 2,36 Гбайт (86%)
Цветовой диапазон : Limited
Основные цвета : BT.709
Характеристики трансфера : BT.709
Коэффициенты матрицы : BT.709

Аудио #1
Идентификатор : 4352 (0x1100)
Идентификатор меню : 1 (0x1)
Формат : AC-3
Формат/Информация : Audio Coding 3
Идентификатор кодека : 129
Продолжительность : 58 м. 16 с.
Вид битрейта : Постоянный
Битрейт : 192 Кбит/сек
Каналы : 2 канала
Расположение каналов : Front: L R
Частота : 48,0 КГц
Частота кадров : 31,250 кадров/сек (1536 SPF)
Битовая глубина : 16 бит
Метод сжатия : С потерями
Размер потока : 80,0 Мбайт (3%)
Язык : Russian
ServiceKind/String : Complete Main

Аудио #2
Идентификатор : 4353 (0x1101)
Идентификатор меню : 1 (0x1)
Формат : AC-3
Формат/Информация : Audio Coding 3
Идентификатор кодека : 129
Продолжительность : 58 м. 16 с.
Вид битрейта : Постоянный
Битрейт : 192 Кбит/сек
Каналы : 2 канала
Расположение каналов : Front: L R
Частота : 48,0 КГц
Частота кадров : 31,250 кадров/сек (1536 SPF)
Битовая глубина : 16 бит
Метод сжатия : С потерями
Размер потока : 80,0 Мбайт (3%)
Язык : Ukrainian
ServiceKind/String : Complete Main

Аудио #3
Идентификатор : 4354 (0x1102)
Идентификатор меню : 1 (0x1)
Формат : AC-3
Формат/Информация : Audio Coding 3
Идентификатор кодека : 129
Продолжительность : 58 м. 16 с.
Вид битрейта : Постоянный
Битрейт : 192 Кбит/сек
Каналы : 2 канала
Расположение каналов : Front: L R
Частота : 48,0 КГц
Частота кадров : 31,250 кадров/сек (1536 SPF)
Битовая глубина : 16 бит
Метод сжатия : С потерями
Размер потока : 80,0 Мбайт (3%)
Язык : English
ServiceKind/String : Complete Main
Скриншоты:


Все одноименные релизы в Клубе
Детали торрента:
Название:BBC. Тайные правила современной жизни: Алгоритмы / The Secret Rules of Modern Living: Algorithms (2015) HDTV [H.264/1080i-LQ]
Дата добавления:11 Май 2018 11:53:56
Размер:2,73 GB
Раздают:39
Качают:0
Форум:BBC

All rights reserved © 2015-2018