TORRENTS43.COM

Скачать NGW: Неудачи хищников / Predator Fails (2015) HDTV [H.264/1080i-LQ] (Серии 1-3 из 3)


Неудачи хищников / Predator Fails (2015) HDTV [H.264/1080i-LQ] (Серии 1-3 из 3)
Производство: Earth Touch USA, LLC for National Geographic Networks
Жанр: Документальный, познавательный, природа, животный мир

Режиссер: Грэм Дуэн

Описание:
Многие думают, что жизнь хищников легка и добыча пропитания для них - пустяковое дело: выследил жертву, догнал, напал, убил и съел. А вот и нет! Более чем в половине случаев хищники терпят неудачу. Ошибкам нет числа, да ещё и напарники подводят. Неудачи идут сплошной чередой и впору уже впасть в отчаяние. Ведь очень часто выбранная жертва оказывается быстрее, хитрее, проворнее или же ей банально везет. А в ряде случаев и сама добыча способна "накостылять" хищнику "по полной программе" вплоть до смертельных увечий. Но внимательный ко всем бедам хищник выживет. Потому что из поражений рождается упорство, которое является важнейшим качеством выживания хищников.

Релиз от: san007
Продолжительность: 3 x 00:43:30
Качество видео: HDTV
Перевод: Дублированный (Велес)
Субтитры: отсутствуют

Видео: AVC/H.264, 1920x1080, ~9230 kbps
Аудио#1: MP2, 2 ch, 192 Kbps | Русский (текст читал: Дмитрий Стрелков)
Аудио#2: MP2, 2 ch, 192 Kbps | Английский

Mediainfo: (тех. данные всех серий идентичны)


Общее
Уникальный идентификатор : 208638301534369639662296931847503097141 (0x9CF6467698472C1F926EDD54FBE42D35)
Полное имя : F:\КИНО\Predator Fails\Predator Fails E02 Seek & Destroy (1080i).mkv
Формат : Matroska
Версия формата : Version 4 / Version 2
Размер файла : 2,99 Гбайт
Продолжительность : 43 м. 38 с.
Режим общего битрейта : Переменный
Общий поток : 9811 Кбит/сек
Название фильма : Predator Fails E02 Seek & Destroy
Дата кодирования : UTC 2015-08-02 04:58:01
Программа кодирования : mkvmerge v7.7.0 ('Six Voices') 64bit built on Feb 28 2015 23:39:33
Библиотека кодирования : libebml v1.3.1 + libmatroska v1.4.2

Видео
Идентификатор : 1
Формат : AVC
Формат/Информация : Advanced Video Codec
Профиль формата : High@L4
Настройки формата : CABAC / 4 Ref Frames
Параметр CABAC формата : Да
Параметр RefFrames формата : 4 кадра
Идентификатор кодека : V_MPEG4/ISO/AVC
Продолжительность : 43 м. 38 с.
Вид битрейта : Переменный
Битрейт : 9232 Кбит/сек
Максимальный битрейт : 40,0 Мбит/сек
Ширина : 1920 пикселей
Высота : 1080 пикселей
Соотношение сторон : 16:9
Режим частоты кадров : Постоянный
Частота кадров : 25,000 кадров/сек
Цветовое пространство : YUV
Субдискретизация насыщенности : 4:2:0
Битовая глубина : 8 бит
Тип развёртки : MBAFF
Метод сохранения типа развёртки : Чередующиеся поля
Порядок развёртки : Верхнее поле первое
Бит/(Пиксели*Кадры) : 0.178
Размер потока : 2,81 Гбайт (94%)
Default : Да
Forced : Нет
Цветовой диапазон : Limited
Основные цвета : BT.709
Характеристики трансфера : BT.709
Коэффициенты матрицы : BT.709

Аудио #1
Идентификатор : 2
Формат : MPEG Audio
Версия формата : Version 1
Профиль формата : Layer 2
Идентификатор кодека : A_MPEG/L2
Идентификатор кодека/Подсказка : MP2
Продолжительность : 43 м. 38 с.
Вид битрейта : Постоянный
Битрейт : 192 Кбит/сек
Каналы : 2 канала
Частота : 48,0 КГц
Метод сжатия : С потерями
Размер потока : 59,9 Мбайт (2%)
Заголовок : Russian
Язык : Russian
Default : Да
Forced : Нет

Аудио #2
Идентификатор : 3
Формат : MPEG Audio
Версия формата : Version 1
Профиль формата : Layer 2
Идентификатор кодека : A_MPEG/L2
Идентификатор кодека/Подсказка : MP2
Продолжительность : 43 м. 38 с.
Вид битрейта : Постоянный
Битрейт : 192 Кбит/сек
Каналы : 2 канала
Частота : 48,0 КГц
Метод сжатия : С потерями
Размер потока : 59,9 Мбайт (2%)
Заголовок : English
Язык : English
Default : Нет
Forced : Нет

Содержание:

01 The Hunting Game / Охотничьи игры
Три высших хищника африканской саванны преследуемые чередой неудач, продемонстрируют свое умение и опыт для достижения в охоте положительного результата.
02 Seek & Destroy / Найти и уничтожить
Шесть хищников с удивительным оружием покажут что представляет из себя настоящая охота и как бороться с неудачами на её завершающей стадии.
03 Deep Water Death Match / Подводный танец смерти
Пять подводных хищников терпят сокрушительное фиаско в океане, но при этом они нам раскрывают план успешной охоты в водных глубинах.
Скриншоты:


Все одноименные релизы в Клубе
Детали торрента:
Название:NGW: Неудачи хищников / Predator Fails (2015) HDTV [H.264/1080i-LQ] (Серии 1-3 из 3)
Дата добавления:11 Май 2018 13:29:08
Размер:8,38 GB
Раздают:9
Качают:0
Форум:National Geographic

All rights reserved © 2015-2018