TORRENTS43.COM

Скачать Доктор Айболит и другие сказки К. И. Чуковского (1946-1985) BDRip [H.264/720p-LQ]


Доктор Айболит и другие сказки К. И. Чуковского (1946-1985) BDRip [H.264/720p-LQ]
Производство: СССР / Союзмультфильм, Киевнаучфильм
Жанр: Детский, Музыкальный, Сказка ,Мультфильм

Режиссер: Борис Аблынин, Сергей Олифиренко, Борис Степанцев, Владимир Попов, Иван Иванов-Вано, Наталия Червинская, Владимир Полковников, Леонид Амальрик, Владимир Морозов

Описание:
Волшебные сказки самого популярного детского писателя в СССР и России К. И. Чуковского не только доставляют массу удовольствий родителям и детям, но и учат всех ребят доброте и взаимовыручке; помогают развивать фантазию и восприятие окружающего мира, эстетически развивают малышей.


Возраст: 6+ (зрителям, достигшим 6 лет)
Дата выхода Blu-Ray: 26 июля 2017, «Крупный План», «НД Плэй»
Продолжительность: 02:45:57
Качество видео: BDRip
Субтитры: отсутствуют

Видео: AVC/H.264, 984x720 (4:3), ~3000 Кбит/сек
Аудио: AC3, 2 ch, 192 Кбит/сек

Список мультфильмов:

1.Доктор Айболит (7 серий) - 1984 – 1985 ., Продолжительность: 01:11:19
2.Бибигон - 1981 г., Продолжительность: 00:19:18
3.Муха-цокотуха - 1976 г., Продолжительность: 00:09:23
4.От двух до пяти - 1983 г., Продолжительность: 00:07:25
5.Мойдодыр - 1954 г., Продолжительность: 00:17:15
6.Тараканище - 1963 г., Продолжительность: 00:17:12
7.Федорино горе - 1974 г., Продолжительность: 00:09:23
8.Павлиний хвост - 1946 г., Продолжительность: 00:10:43
9.Чудо-дерево - 1985 г., Продолжительность: 00:04:17

Mediainfo:


Тех. данные всех файлов одинаковы
Общее
Уникальный идентификатор : 21873924356590782248663584972876261463 (0x1074C3BC4C7F5AE2AC2432C13E33A857)
Полное имя : E:Мойдодыр (1954).mkv
Формат : Matroska
Версия формата : Version 4 / Version 2
Размер файла : 394 Мбайт
Продолжительность : 17 м. 15 с.
Общий поток : 3195 Кбит/сек
Название фильма : Мойдодыр (1954)
Кодирование произвёл : andrejpushkaryov
Описание : Сказка, Детский, Приключения, Музыкальный
Программа кодирования : Lavf57.71.100
Библиотека кодирования : Lavf57.71.100
ErrorDetectionType : Per level 1

Видео
Идентификатор : 1
Формат : AVC
Формат/Информация : Advanced Video Codec
Профиль формата : High@L3.1
Настройки формата : CABAC / 5 Ref Frames
Параметр CABAC формата : Да
Параметр RefFrames формата : 5 кадров
Идентификатор кодека : V_MPEG4/ISO/AVC
Продолжительность : 17 м. 15 с.
Битрейт : 3000 Кбит/сек
Ширина : 984 пикселя
Высота : 720 пикселей
Соотношение сторон : 4:3
Режим частоты кадров : Постоянный
Частота кадров : 24,000 кадра/сек
Цветовое пространство : YUV
Субдискретизация насыщенности : 4:2:0
Битовая глубина : 8 бит
Тип развёртки : Прогрессивная
Бит/(Пиксели*Кадры) : 0.176
Размер потока : 363 Мбайт (92%)
Библиотека кодирования : x264 core 150
Настройки программы : cabac=1 / ref=5 / deblock=1:0:0 / analyse=0x3:0x113 / me=hex / subme=8 / psy=1 / psy_rd=1.00:0.00 / mixed_ref=1 / me_range=16 / chroma_me=1 / trellis=2 / 8x8dct=1 / cqm=0 / deadzone=21,11 / fast_pskip=1 / chroma_qp_offset=-2 / threads=6 / lookahead_threads=1 / sliced_threads=0 / nr=0 / decimate=1 / interlaced=0 / bluray_compat=0 / constrained_intra=0 / bframes=3 / b_pyramid=2 / b_adapt=1 / b_bias=0 / direct=3 / weightb=1 / open_gop=0 / weightp=2 / keyint=250 / keyint_min=24 / scenecut=40 / intra_refresh=0 / rc_lookahead=50 / rc=2pass / mbtree=1 / bitrate=3000 / ratetol=1.0 / qcomp=0.60 / qpmin=0 / qpmax=69 / qpstep=4 / cplxblur=20.0 / qblur=0.5 / ip_ratio=1.40 / aq=1:1.00
Язык : Russian
Default : Да
Forced : Нет

Аудио
Идентификатор : 2
Формат : AC-3
Формат/Информация : Audio Coding 3
Идентификатор кодека : A_AC3
Продолжительность : 17 м. 15 с.
Вид битрейта : Постоянный
Битрейт : 192 Кбит/сек
Каналы : 2 канала
Расположение каналов : Front: L R
Частота : 48,0 КГц
Частота кадров : 31,250 кадров/сек (1536 SPF)
Битовая глубина : 16 бит
Метод сжатия : С потерями
Размер потока : 23,7 Мбайт (6Confused)
Язык : Russian
ServiceKind/String : Complete Main
Default : Да
Forced : Нет
Скриншоты:


Все одноименные релизы в Клубе
Детали торрента:
Название:Доктор Айболит и другие сказки К. И. Чуковского (1946-1985) BDRip [H.264/720p-LQ]
Дата добавления:11 Май 2018 14:09:57
Размер:3,83 GB
Раздают:33
Качают:1
Форум:Отечественные Мультфильмы (HD*Rip/LQ, DVDRip, SATRip, VHSRip)

All rights reserved © 2015-2018