TORRENTS43.COM

Скачать Хоккей. Чемпионат мира 2018. Группа A. Чехия — Россия (10.05.2018) WEB-DL [H.264/720p-LQ]


Хоккей. Чемпионат мира 2018. Группа A. Чехия — Россия (10.05.2018) WEB-DL [H.264/720p-LQ]
«2018 IIHF World Championship»

Телекомпания: Первый канал
Жанр: Спорт

Комментаторы: Александр Кузьмак, Андрей Юртаев, Алексей Яшин

Описание: 10 мая 2018 года, четверг. 21:15 МСК
82-й Чемпионат мира по хоккею с шайбой 2018 года
Группа A. 4-й Тур
Чехия — Россия
Стадион: Роял-Арена (Копенгаген, Дания), 12490 зрителей (100 % при вместимости 12500)
Главные судьи: Бретт Айверсон (Канада), Линус Элунд (Швеция)
Линейные судьи: Джейк Дэвис (США), Натан Ваностен (Канада)

Продолжительность: 02:19:55
Качество видео: WEB-DL
Язык озвучки: Русский
Субтитры: отсутствуют

Видео: AVC/H.264, 1280x720 (16:9), ~3801 Kbps
Аудио: AAC, 2 ch, 48 kHz, 128 Kbps

Mediainfo:


Общее
Уникальный идентификатор : 87528258019537766667087245190496206119 (0x41D9544DA8CCB4F14BC3ED4F912F3D27)
Полное имя : F:\SPORT\Хоккей\2018 IIHF Ice Hockey World Championship\(10.05.2018)_IIHF WCh 2018.PR4.Gr A. CZE - RUS_1canal.mkv
Формат : Matroska
Версия формата : Version 4 / Version 2
Размер файла : 3,84 Гбайт
Продолжительность : 2 ч. 19 м.
Общий поток : 3931 Кбит/сек
Дата кодирования : UTC 2018-05-11 10:42:59
Программа кодирования : mkvmerge v23.0.0 ('The Bride Said No') 32-bit
Библиотека кодирования : libebml v1.3.6 + libmatroska v1.4.9

Видео
Идентификатор : 1
Формат : AVC
Формат/Информация : Advanced Video Codec
Профиль формата : High@L3.1
Настройки формата : CABAC / 4 Ref Frames
Параметр CABAC формата : Да
Параметр RefFrames формата : 4 кадра
Идентификатор кодека : V_MPEG4/ISO/AVC
Продолжительность : 2 ч. 19 м.
Битрейт : 3801 Кбит/сек
Ширина : 1280 пикселей
Высота : 720 пикселей
Соотношение сторон : 16:9
Режим частоты кадров : Постоянный
Частота кадров : 25,000 кадров/сек
Цветовое пространство : YUV
Субдискретизация насыщенности : 4:2:0
Битовая глубина : 8 бит
Тип развёртки : Прогрессивная
Бит/(Пиксели*Кадры) : 0.165
Размер потока : 3,71 Гбайт (97%)
Default : Да
Forced : Нет

Аудио
Идентификатор : 2
Формат : AAC
Формат/Информация : Advanced Audio Codec
Профиль формата : LC
Идентификатор кодека : A_AAC-2
Продолжительность : 2 ч. 19 м.
Битрейт : 128 Кбит/сек
Каналы : 2 канала
Расположение каналов : Front: L R
Частота : 48,0 КГц
Частота кадров : 46,875 кадров/сек (1024 SPF)
Метод сжатия : С потерями
Размер потока : 128 Мбайт (3%)
Язык : Russian
Default : Да
Forced : Нет
Скриншоты:


Все одноименные релизы в Клубе

Смотреть Online

http://37.220.36.15/video/5bd55e84f0d5aade/iframe
Детали торрента:
Название:Хоккей. Чемпионат мира 2018. Группа A. Чехия — Россия (10.05.2018) WEB-DL [H.264/720p-LQ]
Дата добавления:11 Май 2018 14:18:17
Размер:3,84 GB
Раздают:4
Качают:0
Форум:Хоккей. Чемпионат мира 2018

All rights reserved © 2015-2018