TORRENTS43.COM

Скачать Хоккей. Чемпионат мира 2018. Группа A. Чехия — Россия (10.05.2018) HDTVRip [H.264/720p-LQ] [hand made 50fps]


Хоккей. Чемпионат мира 2018. Группа A. Чехия — Россия (10.05.2018) HDTVRip [H.264/720p-LQ]
«2018 IIHF World Championship»

Телекомпания: Матч ТВ HD
Жанр: Спорт

Комментаторы: Алексей Бадюков, Юрий Розанов

Описание: 10 мая 2018 года, четверг. 21:15 МСК
82-й Чемпионат мира по хоккею с шайбой 2018 года
Группа A. 4-й Тур
Чехия — Россия
Стадион: Роял-Арена (Копенгаген, Дания), 12490 зрителей (100 % при вместимости 12500)
Главные судьи: Бретт Айверсон (Канада), Линус Элунд (Швеция)
Линейные судьи: Джейк Дэвис (США), Натан Ваностен (Канада)

Релиз от: Багга

Продолжительность: 01:54:49
Качество видео: HDTVRip
Язык озвучки: Русский
Субтитры: отсутствуют

Видео: AVC/H.264, 1280x720 (16:9), ~3500 Kbps, 50 fps
Аудио: AAC, 2 ch, 48 kHz, 128 Kbps

Mediainfo:


Общее
Уникальный идентификатор : 214068376256293613513563834989288238825 (0xA10C11D129E8F4DAB78FBCB741FA2EE9)
Полное имя : F:\SPORT\Хоккей\2018 IIHF Ice Hockey World Championship\(10.05.2018)_IIHF WCh 2018.PR4.Gr A. CZE - RUS.mkv
Формат : Matroska
Версия формата : Version 4 / Version 2
Размер файла : 2,93 Гбайт
Продолжительность : 1 ч. 54 м.
Общий поток : 3649 Кбит/сек
Дата кодирования : UTC 2018-05-10 19:56:52
Программа кодирования : mkvmerge v8.3.0 ('Over the Horizon') 64bit
Библиотека кодирования : libebml v1.3.1 + libmatroska v1.4.2

Видео
Идентификатор : 1
Формат : AVC
Формат/Информация : Advanced Video Codec
Профиль формата : High@L3.2
Настройки формата : CABAC / 4 Ref Frames
Параметр CABAC формата : Да
Параметр RefFrames формата : 4 кадра
Идентификатор кодека : V_MPEG4/ISO/AVC
Продолжительность : 1 ч. 54 м.
Битрейт : 3500 Кбит/сек
Ширина : 1280 пикселей
Высота : 720 пикселей
Соотношение сторон : 16:9
Режим частоты кадров : Постоянный
Частота кадров : 50,000 кадров/сек
Цветовое пространство : YUV
Субдискретизация насыщенности : 4:2:0
Битовая глубина : 8 бит
Тип развёртки : Прогрессивная
Бит/(Пиксели*Кадры) : 0.076
Размер потока : 2,82 Гбайт (96%)
Библиотека кодирования : x264 core 146 r2538 121396c
Настройки программы : cabac=1 / ref=3 / deblock=1:0:0 / analyse=0x3:0x113 / me=hex / subme=7 / psy=1 / psy_rd=1.00:0.00 / mixed_ref=1 / me_range=16 / chroma_me=1 / trellis=1 / 8x8dct=1 / cqm=0 / deadzone=21,11 / fast_pskip=1 / chroma_qp_offset=-2 / threads=12 / lookahead_threads=2 / sliced_threads=0 / nr=0 / decimate=1 / interlaced=0 / bluray_compat=0 / constrained_intra=0 / bframes=3 / b_pyramid=2 / b_adapt=1 / b_bias=0 / direct=1 / weightb=1 / open_gop=0 / weightp=2 / keyint=250 / keyint_min=25 / scenecut=40 / intra_refresh=0 / rc_lookahead=40 / rc=abr / mbtree=1 / bitrate=3500 / ratetol=1.0 / qcomp=0.60 / qpmin=0 / qpmax=69 / qpstep=4 / ip_ratio=1.40 / aq=1:1.00
Default : Да
Forced : Нет

Аудио
Идентификатор : 2
Формат : AAC
Формат/Информация : Advanced Audio Codec
Профиль формата : LC
Идентификатор кодека : A_AAC-2
Продолжительность : 1 ч. 54 м.
Битрейт : 128 Кбит/сек
Каналы : 2 канала
Расположение каналов : Front: L R
Частота : 48,0 КГц
Частота кадров : 46,875 кадров/сек (1024 SPF)
Метод сжатия : С потерями
Задержка видео : 9 мс.
Размер потока : 105 Мбайт (4%)
Default : Да
Forced : Нет
Скриншоты:


Все одноименные релизы в Клубе

Смотреть Online

http://37.220.36.15/video/5bd55e84f0d5aade/iframe
Детали торрента:
Название:Хоккей. Чемпионат мира 2018. Группа A. Чехия — Россия (10.05.2018) HDTVRip [H.264/720p-LQ] [hand made 50fps]
Дата добавления:11 Май 2018 15:17:01
Размер:2,93 GB
Раздают:2
Качают:0
Форум:Хоккей. Чемпионат мира 2018

All rights reserved © 2015-2018