TORRENTS43.COM

Скачать Уральские пельмени. Гиря от ума! (2018.05.11) SATRip


Уральские пельмени. Гиря от ума! (2018.05.11) SATRip
Телекомпания: СТС
Жанр: Юмор

Описание:
Они ездят в магазин на велотренажере. Они жмут булку от груди и толкают штангу в пропасть. Они любят бег с шестом и спортивную ходьбу по квартире. Для них даже шахматы травмоопасный вид спорта, а лыжная гонка шанс пропасть в лесу. Но они все равно чемпионы в своем новом шоу «Гиря от ума»…

Участники: Дмитрий Брекоткин, Сергей Ершов, Сергей Исаев, Сергей Калугин, Вячеслав Мясников, Сергей Нетиевский, Александр Попов, Андрей Рожков, Дмитрий Соколов, Максим Ярица, Юля Михалкова


Возраст: 12+ (зрителям, достигшим 12 лет)

Продолжительность: 01:06:30
Качество видео: SATRip

Видео: XviD, 720x400, 1795 kbps
Аудио: 48 kHz, MPEG Layer 3, 2 ch, ~128 kbps

MI

Код: выделить все
Общее
Полное имя                               : D:\Уральские пельмени. Гиря от ума (2018.05.11) SATRip.avi
Формат                                   : AVI
Формат/Информация                        : Audio Video Interleave
Размер файла                             : 920 Мбайт
Продолжительность                        : 1 ч. 6 м.
Общий поток                              : 1933 Кбит/сек
Программа кодирования                    : VirtualDubMod 1.5.10.3 (build 2550/release)
Библиотека кодирования                   : VirtualDubMod build 2550/release

Видео
Идентификатор                            : 0
Формат                                   : MPEG-4 Visual
Профиль формата                          : Advanced Simple@L5
Настройки формата                        : BVOP2
Параметр BVOP формата                    : 2
Параметр QPel формата                    : Нет
Параметр GMC формата                     : Без точки перехода
Параметр матрицы формата                 : Default (H.263)
Идентификатор кодека                     : XVID
Идентификатор кодека/Подсказка           : XviD
Продолжительность                        : 1 ч. 6 м.
Битрейт                                  : 1795 Кбит/сек
Ширина                                   : 720 пикселей
Высота                                   : 400 пикселей
Соотношение сторон                       : 16:9
Частота кадров                           : 25,000 кадров/сек
Цветовое пространство                    : YUV
Субдискретизация насыщенности            : 4:2:0
Битовая глубина                          : 8 бит
Тип развёртки                            : Прогрессивная
Метод сжатия                             : С потерями
Бит/(Пиксели*Кадры)                      : 0.249
Размер потока                            : 854 Мбайт (93%)
Библиотека кодирования                   : XviD 1.2.1 (UTC 2008-12-04)

Аудио
Идентификатор                            : 1
Формат                                   : MPEG Audio
Версия формата                           : Version 1
Профиль формата                          : Layer 3
Идентификатор кодека                     : 55
Идентификатор кодека/Подсказка           : MP3
Продолжительность                        : 1 ч. 6 м.
Вид битрейта                             : Постоянный
Битрейт                                  : 128 Кбит/сек
Каналы                                   : 2 канала
Частота                                  : 48,0 КГц
Частота кадров                           : 41,667 кадра/сек (1152 SPF)
Метод сжатия                             : С потерями
Размер потока                            : 60,9 Мбайт (7%)
Выравнивание                             : Соединение по промежуткам
Продолжительность промежутка             : 40  мс. (1,00 видеокадр)
Время предзагрузки промежутка            : 504  мс.
Библиотека кодирования                   : LAME3.99r
Настройки программы                      : -m s -V 4 -q 2 -lowpass 17 -b 128

Скриншоты:


Все одноименные релизы в Клубе
Детали торрента:
Название:Уральские пельмени. Гиря от ума! (2018.05.11) SATRip
Дата добавления:11 Май 2018 15:39:32
Размер:920 MB
Раздают:225
Качают:5
Форум:ПостКВН

All rights reserved © 2015-2018