TORRENTS43.COM

Скачать Хоккей. Чемпионат мира 2018. Группа A. Словакия — Франция (10.05.2018) HDTVRip [H.264/720p-LQ] [hand made 50fps]


Хоккей. Чемпионат мира 2018. Группа A. Словакия — Франция (10.05.2018) HDTVRip [H.264/720p-LQ]
«2018 IIHF World Championship»

Телекомпания: Матч! Игра HD
Жанр: Спорт

Комментаторы: Алексей Бадюков, Юрий Розанов

Описание: 10 мая 2018 года, четверг. 17:15 МСК
82-й Чемпионат мира по хоккею с шайбой 2018 года
Группа A. 4-й Тур
Словакия — Франция
Стадион: Роял-Арена (Копенгаген, Дания), 5855 зрителей (47 % при вместимости 12500)
Главные судьи: Роман Гофман (Россия), Антонин Ержабек (Чехия)
Линейные судьи: Рене Йенсен (Дания), Юн Килиан (Норвегия)

Релиз от: Багга

Продолжительность: 01:56:35
Качество видео: HDTVRip
Язык озвучки: Русский
Субтитры: отсутствуют

Видео: AVC/H.264, 1280x720 (16:9), ~3000 Kbps, 50 fps
Аудио: AAC, 2 ch, 44,1 kHz, 128 Kbps

Mediainfo:


Общее
Уникальный идентификатор : 191451247782075526496609599536084458025 (0x90082B4A18D2B70D8199246CB50E9A29)
Полное имя : F:\SPORT\Хоккей\2018 IIHF Ice Hockey World Championship\(10.05.2018)_IIHF WCh 2018.PR4.Gr A. SVK - FRA.mkv
Формат : Matroska
Версия формата : Version 4 / Version 2
Размер файла : 2,48 Гбайт
Продолжительность : 1 ч. 56 м.
Общий поток : 3042 Кбит/сек
Дата кодирования : UTC 2018-05-10 16:39:34
Программа кодирования : mkvmerge v8.3.0 ('Over the Horizon') 64bit
Библиотека кодирования : libebml v1.3.1 + libmatroska v1.4.2 / Lavf56.25.101
ENCODING_INFO : MPEGTS > MKV 720p / H264 > X264 CBR 3000kbps Medium / AAC-LC > AAC CBR 128kbps LD

Видео
Идентификатор : 1
Формат : AVC
Формат/Информация : Advanced Video Codec
Профиль формата : High@L3.2
Настройки формата : CABAC / 4 Ref Frames
Параметр CABAC формата : Да
Параметр RefFrames формата : 4 кадра
Идентификатор кодека : V_MPEG4/ISO/AVC
Продолжительность : 1 ч. 56 м.
Битрейт : 3000 Кбит/сек
Ширина : 1280 пикселей
Высота : 720 пикселей
Соотношение сторон : 16:9
Режим частоты кадров : Постоянный
Частота кадров : 50,000 кадров/сек
Цветовое пространство : YUV
Субдискретизация насыщенности : 4:2:0
Битовая глубина : 8 бит
Тип развёртки : Прогрессивная
Бит/(Пиксели*Кадры) : 0.065
Размер потока : 2,37 Гбайт (96%)
Библиотека кодирования : x264 core 148 r2597M e86f3a1
Настройки программы : cabac=1 / ref=3 / deblock=1:-2:-2 / analyse=0x3:0x113 / me=hex / subme=7 / psy=1 / psy_rd=1.00:0.00 / mixed_ref=1 / me_range=16 / chroma_me=1 / trellis=1 / 8x8dct=1 / cqm=0 / deadzone=21,11 / fast_pskip=1 / chroma_qp_offset=-2 / threads=10 / lookahead_threads=1 / sliced_threads=0 / nr=0 / decimate=1 / interlaced=0 / bluray_compat=0 / constrained_intra=0 / bframes=3 / b_pyramid=2 / b_adapt=1 / b_bias=0 / direct=1 / weightb=1 / open_gop=0 / weightp=2 / keyint=250 / keyint_min=25 / scenecut=40 / intra_refresh=0 / rc_lookahead=40 / rc=cbr / mbtree=1 / bitrate=3000 / ratetol=1.0 / qcomp=0.60 / qpmin=0 / qpmax=69 / qpstep=4 / vbv_maxrate=3000 / vbv_bufsize=3000 / nal_hrd=none / filler=0 / ip_ratio=1.40 / aq=1:1.00
Default : Да
Forced : Нет
Цветовой диапазон : Limited
Основные цвета : BT.709
Характеристики трансфера : BT.709
Коэффициенты матрицы : BT.709

Аудио
Идентификатор : 2
Формат : ER AAC LD
Формат/Информация : Advanced Audio Codec
Идентификатор кодека : A_AAC-23
Продолжительность : 1 ч. 56 м.
Битрейт : 128 Кбит/сек
Каналы : 2 канала
Расположение каналов : Front: L R
Частота : 44,1 КГц
Частота кадров : 43,066 кадра/сек (1024 SPF)
Метод сжатия : С потерями
Размер потока : 107 Мбайт (4%)
Default : Да
Forced : Нет
Скриншоты:


Все одноименные релизы в Клубе

Смотреть Online

http://moonwalk.cc/video/7728cf37db2dd0c0/iframe
Детали торрента:
Название:Хоккей. Чемпионат мира 2018. Группа A. Словакия — Франция (10.05.2018) HDTVRip [H.264/720p-LQ] [hand made 50fps]
Дата добавления:11 Май 2018 16:13:07
Размер:2,48 GB
Раздают:2
Качают:0
Форум:Хоккей. Чемпионат мира 2018

All rights reserved © 2015-2018