TORRENTS43.COM

Скачать Nora to Oujo to Noraneko Heart | Nora, Princess, and Stray Cat | Нора, принцесса и бродячая кошка [2017, TV, 12 эп.] BDrip 1080 raw


Nora to Oujo to Noraneko Heart
Nora, Princess, and Stray Cat
Нора, принцесса и бродячая кошка
ノラと皇女と野良猫ハート

Жанр: комедия
Тип: ТВ
Продолжительность: 12 эп. по 4 мин.
Количество серий: 12 из 12
Выпуск: c 12.07.2017 по 27.09.2017
Режиссер: Мории Кэнсиро
Ссылки: World-Art, ANN, AniDB, MyAnimeList, Сетка вещания
Описание:
Человечество с давних пор задумывалось о секрете бессмертия. Но, как оказалось, у потусторонних сил свои планы на этот счёт. Когда люди наконец-то перестали умирать и зажили полноценной жизнью без страха смерти, в мире мёртвых не на шутку испугались. Ведь если смерти больше нет, то и их мир тоже скоро изживёт себя, станет не нужен людям. Поэтому, чтобы восстановить справедливость и спастись, решено было отправить в мир живых Принцессу Патрицию. Миссия принцессы - показать людям, что смерть ещё существует.

Однажды, гуляя в парке после школы, паренёк по имени Нора Ханда наткнулся на обессиленную девушку, утверждающую, что она королева ада. Оказалось, что жизнерадостность живых людей губительна для посланницы смерти и разрушений, поэтому свой план ей исполнить пока не получается. Зато, ради собственного утешения, ей удаётся с помощью своей магии превратить Нору в кота и подчинить его себе. Теперь Норе предстоит помочь Патриции разгадать загадку жизни, так ранящей юную принцессу мира мёртвых.
© animevost
Качество видео: BDrip
Видео: AVC (High@L4), 1920x1080 (16:9), ~29.970 fps, ~4381 kbps
Аудио: FLAC, 2 ch, 48 kHz, 16 bit, ~757 kbps | Звук: Японский
Язык озвучки: Японский
Субтитры: Русские
Перевод: AniPlay; Crunchyroll; Omnikus
Скриншоты:


Эпизоды

01. I`ve Been Turned Into a Cat with Magic?!
02. That Guy Who Never Turns Around When Handouts Are Distributed
03. Our Memories
04. Revolutionaries
05. Pushing for Leviathan
06. World Peace
07. I Am a Customer
08. Summer Fireworks
09. I Feel Like Visiting a Donut Shop
10. Your Teacher Won`t Look for the Murderer
11. Decluttering
12. I Don`t Have Enough Clothes

Media Info на первую серию


General
Unique ID : 159541352053921176287989245047331998613 (0x78068BF66C4CC231E5D4ED411225CB95)
Complete name : Nora to Oujo to Noraneko Heart (BDRip 1920x1080 x264 FLAC)\[ReinForce] Nora to Oujo to Noraneko Heart 01 (BDRip 1920x1080 x264 FLAC).mkv
Format : Matroska
Format version : Version 4 / Version 2
File size : 129 MiB
Duration : 3 min 30 s
Overall bit rate mode : Variable
Overall bit rate : 5 141 kb/s
Encoded date : UTC 2018-04-15 12:50:06
Writing application : mkvmerge v21.0.0 ('Tardigrades Will Inherit The Earth') 64-bit
Writing library : libebml v1.3.5 + libmatroska v1.4.8

Video
ID : 1
Format : AVC
Format/Info : Advanced Video Codec
Format profile : High@L4
Format settings : CABAC / 4 Ref Frames
Format settings, CABAC : Yes
Format settings, ReFrames : 4 frames
Codec ID : V_MPEG4/ISO/AVC
Duration : 3 min 30 s
Bit rate : 4 381 kb/s
Width : 1 920 pixels
Height : 1 080 pixels
Display aspect ratio : 16:9
Frame rate mode : Constant
Frame rate : 29.970 (30000/1001) FPS
Color space : YUV
Chroma subsampling : 4:2:0
Bit depth : 8 bits
Scan type : MBAFF
Scan type, store method : Interleaved fields
Scan order : Top Field First
Bits/(Pixel*Frame) : 0.070
Stream size : 110 MiB (85%)
Writing library : x264 core 152
Encoding settings : opencl=1 / cabac=1 / ref=4 / deblock=1:-2:-2 / analyse=0x3:0x113 / me=umh / subme=9 / psy=1 / psy_rd=0.70:0.00 / mixed_ref=0 / me_range=32 / chroma_me=1 / trellis=2 / 8x8dct=1 / cqm=0 / deadzone=21,11 / fast_pskip=1 / chroma_qp_offset=-2 / threads=8 / lookahead_threads=1 / sliced_threads=0 / nr=0 / decimate=1 / interlaced=tff / bluray_compat=0 / constrained_intra=0 / bframes=9 / b_pyramid=2 / b_adapt=2 / b_bias=0 / direct=3 / weightb=1 / open_gop=0 / weightp=0 / keyint=250 / keyint_min=23 / scenecut=40 / intra_refresh=0 / rc_lookahead=40 / rc=crf / mbtree=1 / crf=16.0 / qcomp=0.70 / qpmin=10 / qpmax=20 / qpstep=4 / ip_ratio=1.40 / aq=1:1.00
Default : Yes
Forced : No

Audio
ID : 2
Format : FLAC
Format/Info : Free Lossless Audio Codec
Codec ID : A_FLAC
Duration : 3 min 30 s
Bit rate mode : Variable
Bit rate : 757 kb/s
Channel(s) : 2 channels
Channel positions : Front: L R
Sampling rate : 48.0 kHz
Frame rate : 10.419 FPS (4607 SPF)
Bit depth : 16 bits
Stream size : 19.0 MiB (15%)
Writing library : Lavf57.83.100
Language : Japanese
Default : Yes
Forced : No
Детали торрента:
Название:Nora to Oujo to Noraneko Heart | Nora, Princess, and Stray Cat | Нора, принцесса и бродячая кошка [2017, TV, 12 эп.] BDrip 1080 raw
Дата добавления:11 Май 2018 16:49:11
Размер:2,42 GB
Раздают:3
Качают:1
Форум:Аниме (FullHD)

All rights reserved © 2015-2018