TORRENTS43.COM

Скачать Сигналы точного времени (2014) DVB (Сезон 1, Серии 1-4 из 4)


Сигналы точного времени (2014) DVB
Телекомпания: Россия / ВГТРК Культура
Жанр: Документальный, История

Участники: Режиссер: Игорь Морозов

Описание:
1 серия: Няня всесоюзного значения.
О легендарных советских программах для детей: "КОАПП", "Радионяня", "Клуб знаменитых капитанов", "Ровесники", "Пионерская зорька" и о людях, их создававших. Участвуют: Владимир Вишневский, Александр Левенбук, Татьяна Потапова, Вячеслав Кирик, Татьяна Курьянова.
2 серия: По вашим заявкам.
Как становились хитами песни неизвестных авторов, о самих авторах и исполнителях, становившихся популярными благодаря музыкальному радиовещанию, о казусах, случавшихся в связи с выходом некоторых песен в эфир и о своей тихой борьбе с всепроникающей советской идеологией расскажут ведущие программы "В рабочий полдень" Людмила Дубовцева и Галина Гордеева. Участвуют: Надежда Бредис, Нелли Алекперова, Юрий Энтин и другие.
3 серия: Театр с доставкой на дом.
О том, как создавалась программа "Театр у микрофона" рассказывает ее основатель, легендарный режиссер Эмиль Верник. Своими воспоминаниями об опыте и уроках актерского мастерства на радио делятся Евгений Киндинов и Вениамин Смехов.
4 серия: На опасных волнах.
Зарубежные русскоязычные радиостанции. О своей работе расскажут бывший сотрудник радиостанции "Свобода" Владимир Войнович, сотрудники ВВС Сева Новгородцев и Юрий Голигорский.

Продолжительность: ~00:26:00 (одна серия)
Качество видео: DVB
Субтитры: Русские, телетекст

Видео: AVC/H.264, 720x576@1024x576, ~2663 Kbps
Аудио: MP2, 2 ch, 192 kbps

Mediainfo:


Общее
Идентификатор : 16 (0x10)
Полное имя : 01_Сигналы точного времени_Няня всесоюзного значения.ts
Формат : MPEG-TS
Размер файла : 564 Мбайт
Продолжительность : 26 м. 14 с.
Режим общего битрейта : Переменный
Общий поток : 3005 Кбит/сек

Видео
Идентификатор : 1061 (0x425)
Идентификатор меню : 1060 (0x424)
Формат : AVC
Формат/Информация : Advanced Video Codec
Профиль формата : Main@L3
Настройки формата : CABAC / 4 Ref Frames
Параметр CABAC формата : Да
Параметр RefFrames формата : 4 кадра
Параметр GOP формата : M=4, N=28
Структура изображения : Frame
Идентификатор кодека : 27
Продолжительность : 26 м. 14 с.
Битрейт : 2663 Кбит/сек
Ширина : 720 пикселей
Высота : 576 пикселей
Соотношение сторон : 16:9
Частота кадров : 25,000 кадров/сек
Стандарт вещания : PAL
Цветовое пространство : YUV
Субдискретизация насыщенности : 4:2:0
Битовая глубина : 8 бит
Тип развёртки : Чересстрочная
Метод сохранения типа развёртки : Чередующиеся поля
Порядок развёртки : Верхнее поле первое
Бит/(Пиксели*Кадры) : 0.257
Размер потока : 500 Мбайт (89%)
Цветовой диапазон : Limited
Основные цвета : BT.601 PAL
Характеристики трансфера : BT.470 System B, BT.470 System G
Коэффициенты матрицы : BT.470 System B, BT.470 System G

Аудио
Идентификатор : 1062 (0x426)
Идентификатор меню : 1060 (0x424)
Формат : MPEG Audio
Версия формата : Version 1
Профиль формата : Layer 2
Идентификатор кодека : 4
Продолжительность : 26 м. 14 с.
Вид битрейта : Постоянный
Битрейт : 192 Кбит/сек
Каналы : 2 канала
Частота : 48,0 КГц
Метод сжатия : С потерями
Задержка видео : 41 мс.
Размер потока : 36,0 Мбайт (6%)
Язык : std
Язык, дополнительно : Clean effects

Прочее #1
Идентификатор : 1064 (0x428)-100
Идентификатор меню : 1060 (0x424)
Формат : Teletext

Прочее #2
Идентификатор : 1064 (0x428)-888
Идентификатор меню : 1060 (0x424)
Формат : Teletext
Язык, дополнительно : Additional information page
Скриншоты:


Все одноименные релизы в Клубе
Детали торрента:
Название:Сигналы точного времени (2014) DVB (Сезон 1, Серии 1-4 из 4)
Дата добавления:11 Май 2018 16:51:44
Размер:2,2 GB
Раздают:1
Качают:0
Форум:Посвящение искусству

All rights reserved © 2015-2018