TORRENTS43.COM

Скачать Mahou Shoujo Lyrical Nanoha: Reflection | Magical Girl Lyrical Nanoha: Reflection | Лиричная волшебница Наноха: Отражение (фильм третий) [2017, Movie] BDrip 1080p raw


Mahou Shoujo Lyrical Nanoha: Reflection
Magical Girl Lyrical Nanoha: Reflection
Лиричная волшебница Наноха: Отражение (фильм третий)
魔法少女リリカルなのは Reflection

Жанр: приключения
Тип: полнометражный фильм
Продолжительность: 110 мин.
Выпуск: 22.07.2017
Производство: студия Seven Arcs / セブン・アークス
Автор оригинала: Цудзуки Маки
Режиссер: Хамана Такаюки
Ссылки: World-Art, ANN, AniDB, MyAnimeList
Описание:
Пара исследователей остается на своей умирающей планете Элтория со своими двумя дочерьми Амитиэ и Кириэ в надежде найти способ оживить планету. Но когда их отец заболевает, кажется, мечта возродить планету умрет. Против желания старшей сестры, Кириэ отправляется вместе со своей поддругой детства Ирис, чтобы получить помощь из другого мира. Они прибывают в Японию на Землю, чтобы найти ключ к регенерации их планеты. Там они встречаются с Нанохой, Фейт и Хаяте.
Качество видео: BDrip
Видео: AVC (High@L4), 1920x1080 (16:9), ~23.976 fps, ~9865 kbps
Аудио: FLAC, 2 ch, 48 kHz, 24 bit, ~1169 kbps | Звук: Японский
Язык озвучки: Японский
Субтитры: Русские
Перевод: Hollow
Скриншоты:


Состав серии

#01 Сердечный треугольник OVA-1 - OVA (5 эп.), адаптация игры, 2000
#02 Сердечный треугольник OVA-2 - OVA (4 эп.), адаптация игры, 2003
#03 Лиричная волшебница Наноха [ТВ] - ТВ (13 эп.), spinoff (ответвление сюжета), 2004
#04 Лиричная волшебница Наноха (фильм первый) - п/ф, альтернативная версия, 2010
#05 Лиричная волшебница Наноха: Асы - ТВ (13 эп.), продолжение, 2005
#06 Лиричная волшебница Наноха (фильм второй) - п/ф, альтернативная версия, 2012
#07 Лиричная волшебница Наноха: Искатели - ТВ (26 эп.), продолжение, 2007
#08 Лиричная волшебница Наноха: Вивио - ТВ (12 эп. + эп.-коллаж), продолжение, 2015
#09 Решающий удар! - ТВ (12 эп. + 3 спэшла), продолжение, 2016
#10 Magical Girl Lyrical Nanoha Reflection - п/ф, продолжение, 2017
#11 Magical Girl Lyrical Nanoha Detonation - п/ф, продолжение, 2018

Media Info на первую серию


General
Unique ID : 85721980968629408201271076172091563735 (0x407D73F81169DAC05A6DDB21B21B1ED7)
Complete name : Mahou Shoujo Lyrical Nanoha Reflection (BDRip 1920x1080 x264 FLAC)\[ReinForce] Mahou Shoujo Lyrical Nanoha Reflection (BDRip 1920x1080 x264 FLAC).mkv
Format : Matroska
Format version : Version 4 / Version 2
File size : 8.21 GiB
Duration : 1 h 46 min
Overall bit rate mode : Variable
Overall bit rate : 11.0 Mb/s
Encoded date : UTC 2018-04-12 19:56:13
Writing application : mkvmerge v21.0.0 ('Tardigrades Will Inherit The Earth') 64-bit
Writing library : libebml v1.3.5 + libmatroska v1.4.8

Video
ID : 1
Format : AVC
Format/Info : Advanced Video Codec
Format profile : High@L4
Format settings : CABAC / 4 Ref Frames
Format settings, CABAC : Yes
Format settings, ReFrames : 4 frames
Codec ID : V_MPEG4/ISO/AVC
Duration : 1 h 46 min
Bit rate : 9 865 kb/s
Width : 1 920 pixels
Height : 1 080 pixels
Display aspect ratio : 16:9
Frame rate mode : Constant
Frame rate : 23.976 (24000/1001) FPS
Color space : YUV
Chroma subsampling : 4:2:0
Bit depth : 8 bits
Scan type : Progressive
Bits/(Pixel*Frame) : 0.198
Stream size : 7.34 GiB (89%)
Writing library : x264 core 152
Encoding settings : opencl=1 / cabac=1 / ref=4 / deblock=1:-2:-2 / analyse=0x3:0x113 / me=tesa / subme=10 / psy=1 / psy_rd=0.70:0.00 / mixed_ref=0 / me_range=32 / chroma_me=1 / trellis=2 / 8x8dct=1 / cqm=0 / deadzone=21,11 / fast_pskip=1 / chroma_qp_offset=-2 / threads=8 / lookahead_threads=1 / sliced_threads=0 / nr=0 / decimate=1 / interlaced=0 / bluray_compat=0 / constrained_intra=0 / bframes=9 / b_pyramid=2 / b_adapt=2 / b_bias=0 / direct=3 / weightb=1 / open_gop=0 / weightp=2 / keyint=250 / keyint_min=23 / scenecut=40 / intra_refresh=0 / rc_lookahead=40 / rc=crf / mbtree=1 / crf=14.0 / qcomp=0.70 / qpmin=10 / qpmax=20 / qpstep=4 / ip_ratio=1.40 / aq=1:1.00
Default : Yes
Forced : No

Audio
ID : 2
Format : FLAC
Format/Info : Free Lossless Audio Codec
Codec ID : A_FLAC
Duration : 1 h 46 min
Bit rate mode : Variable
Bit rate : 1 169 kb/s
Channel(s) : 2 channels
Channel positions : Front: L R
Sampling rate : 48.0 kHz
Frame rate : 10.417 FPS (4608 SPF)
Bit depth : 24 bits
Stream size : 891 MiB (11%)
Writing library : Lavf57.83.100
Language : Japanese
Default : Yes
Forced : No

Смотреть Online

http://moonwalk.cc/video/a7005679d25b4a1c/iframe
Детали торрента:
Название:Mahou Shoujo Lyrical Nanoha: Reflection | Magical Girl Lyrical Nanoha: Reflection | Лиричная волшебница Наноха: Отражение (фильм третий) [2017, Movie] BDrip 1080p raw
Дата добавления:11 Май 2018 16:56:53
Размер:13,6 GB
Раздают:3
Качают:1
Форум:Аниме (FullHD)

All rights reserved © 2015-2018