TORRENTS43.COM

Скачать Konohana Kitan | Загадочная история "Коноханы" [2017, TV, 12 эп.] BDrip 1080p raw


Konohana Kitan | Загадочная история "Коноханы" | Истории "Коноханы" | このはな綺譚
Жанр: повседневность, фэнтези, романтика
Тип: ТВ
Продолжительность: 12 эп. по 25 мин.
Количество серий: 12 из 12
Выпуск: c 04.10.2017 по 20.12.2017
Производство: студия Lerche / ラルケ
Автор оригинала: Амано Сакуя
Режиссер: Окамото Хидэки
Ссылки: World-Art, ANN, AniDB, MyAnimeList, Сетка вещания
Описание:
Каких только удобств нет у людей! И рестораны, и клубы, и библиотеки, и гостиницы… А вы думали, что ёкаям этого не нужно? Они так же, как и мы, желают жить на полную катушку и с комфортом! Гостиница "Конохана” полностью соответствует притязательным желаниям ёкаев. Она оформлена в традиционном японском стиле, расположена на горячих источниках, а работают в ней девушки-лисички. Что ещё можно пожелать для счастья?

Лисичка по имени Юзу в детстве была выброшена в снег, но её подобрала и воспитала добрая буддистская монахиня. Юзу не слишком умеет общаться, немного неклюжа, но она искренне хочет узнать побольше об обществе, поэтому устраивается работать в "Конохану”. Вскоре дружелюбная и жизнерадостная Юзу становится незаменимой частью команды гувернанток гостиницы. Каждый день там останавливаются самые разные ёкаи, с разными предпочтениями и характерами, а задача лисичек заключается в том, чтобы у клиента остались только хорошие впечатления об этом месте! Но что скрывается за их стараниями, сможем увидеть только мы.
Качество видео: BDrip
Видео: AVC (High@L4), 1920x1080 (16:9), ~23.976 fps, ~7154 kbps
Аудио: FLAC, 2 ch, 48 kHz, 16 bit, ~660 kbps | Звук: Японский
Язык озвучки: Японский
Субтитры: Русские
Перевод: Crunchyroll; SoraSubs
Скриншоты:


Эпизоды

01. Сакуя Конохана | Sakuya Konohana
02. Весеннее путешествие | Spring Journey
03. Томительно ожидание | Waiting Lovesick
04. Плавучий мост грёз | Raft Bridge of Dreams
05. С ним приходят весенние дожди | The Spring Rains Bring with It
06. Страшные истории Конаханатей | Konohanatei Horror Stories
07. Ночь летнего фестиваля | Night of the Summer Festival
08. Временный жилец | The Transient Guest
09. Мимолётно... | Evanescent...
10. Атака старшой сестры | The Sister Strikes
11. Божественный праздник | A God`s Day Off
12. Новогоднее чудо | Miracle on New Year`s Eve

Media Info на первую серию


General
Unique ID : 293676214378145354264837156183302801784 (0xDCEFFB450F408C2D701CA40FB8A90978)
Complete name : Konohana Kitan (BDRip 1920x1080 x264 FLAC)\[ReinForce] Konohana Kitan - 01 (BDRip 1920x1080 x264 FLAC).mkv
Format : Matroska
Format version : Version 4 / Version 2
File size : 1.30 GiB
Duration : 23 min 52 s
Overall bit rate mode : Variable
Overall bit rate : 7 816 kb/s
Encoded date : UTC 2018-02-27 10:45:06
Writing application : mkvmerge v20.0.0 ('I Am The Sun') 64-bit
Writing library : libebml v1.3.5 + libmatroska v1.4.8

Video
ID : 1
Format : AVC
Format/Info : Advanced Video Codec
Format profile : High@L4
Format settings : CABAC / 4 Ref Frames
Format settings, CABAC : Yes
Format settings, ReFrames : 4 frames
Codec ID : V_MPEG4/ISO/AVC
Duration : 23 min 52 s
Bit rate : 7 154 kb/s
Width : 1 920 pixels
Height : 1 080 pixels
Display aspect ratio : 16:9
Frame rate mode : Constant
Frame rate : 23.976 (24000/1001) FPS
Color space : YUV
Chroma subsampling : 4:2:0
Bit depth : 8 bits
Scan type : Progressive
Bits/(Pixel*Frame) : 0.144
Stream size : 1.19 GiB (92%)
Writing library : x264 core 152
Encoding settings : opencl=1 / cabac=1 / ref=4 / deblock=1:-2:-2 / analyse=0x3:0x113 / me=umh / subme=9 / psy=1 / psy_rd=0.70:0.00 / mixed_ref=0 / me_range=32 / chroma_me=1 / trellis=2 / 8x8dct=1 / cqm=0 / deadzone=21,11 / fast_pskip=1 / chroma_qp_offset=-2 / threads=8 / lookahead_threads=1 / sliced_threads=0 / nr=0 / decimate=1 / interlaced=0 / bluray_compat=0 / constrained_intra=0 / bframes=9 / b_pyramid=2 / b_adapt=2 / b_bias=0 / direct=3 / weightb=1 / open_gop=0 / weightp=2 / keyint=250 / keyint_min=23 / scenecut=40 / intra_refresh=0 / rc_lookahead=40 / rc=crf / mbtree=1 / crf=16.0 / qcomp=0.70 / qpmin=10 / qpmax=20 / qpstep=4 / ip_ratio=1.40 / aq=1:1.00
Default : Yes
Forced : No

Audio
ID : 2
Format : FLAC
Format/Info : Free Lossless Audio Codec
Codec ID : A_FLAC
Duration : 23 min 52 s
Bit rate mode : Variable
Bit rate : 660 kb/s
Channel(s) : 2 channels
Channel positions : Front: L R
Sampling rate : 48.0 kHz
Frame rate : 10.417 FPS (4608 SPF)
Bit depth : 16 bits
Stream size : 113 MiB (8%)
Writing library : Lavf57.83.100
Language : Japanese
Default : Yes
Forced : No
Детали торрента:
Название:Konohana Kitan | Загадочная история "Коноханы" [2017, TV, 12 эп.] BDrip 1080p raw
Дата добавления:11 Май 2018 17:09:42
Размер:19,7 GB
Раздают:2
Качают:1
Форум:Аниме (FullHD)

All rights reserved © 2015-2018