TORRENTS43.COM

Скачать Re:Creators | Возрождающие [2017, TV, 22 эп.] BDrip 1080p 10bit raw


Re:Creators | Возрождающие
Жанр: приключения, фэнтези
Тип: ТВ
Продолжительность: 22 эп. по 25 мин.
Количество серий: 22 из 22
Выпуск: c 08.04.2017 по 16.09.2017
Производство: студия Troyca
Автор оригинала: Хироэ Рэй
Режиссер: Аоки Эй
Ссылки: World-Art, ANN, AniDB, MyAnimeList, Сетка вещания
Описание:
Множество прекрасных историй вышло из-под пера человека.
Искрометная радость, глубокая печаль, бушующая ненависть — все эти яркие эмоции причудливо переплетены на их страницах. Истории пробуждают воображение, волнуют чувства, очаровывают и приводят в восторг.
Так кажется на первый взгляд.
Но что если герои истории наделены собственной волей? А мы, люди, для них — богоподобные создания, творцы, что дают жизнь их мирам и также легко низвергают в небытие?
Отныне и наш мир изменился.
Да свершится возмездие в царстве беззаботных богов. Ведь в новом мире каждый способен стать Творцом.
Качество видео: BDrip
Видео: AVC (High 10@L5) 10 bit, 1920x1080 (16:9), ~23.976 fps, ~7742 kbps
Аудио: FLAC, 2 ch, 48 kHz, 24 bit, ~1458 kbps | Звук: Японский
Язык озвучки: Японский
Субтитры: Русские
Перевод: AOS; SovetRomantica
Скриншоты:


Эпизоды

01. "I Will Remember Everything That Happened to Me."
02. "......That Wasn`t Funny."
03. "Don`t Worry About What Others Said. Just Be Yourself."
04. "If So, I Want to Protect What He Loved."
05. "So, Why Don`t We Have Ourselves a Guys` Night Out?"
06. "You Are the One Who Knows Where Justice Lies."
07. "I Don`t Want to Make a Mistake for the Sake of the People Who Are in My Story."
08. "I Chose This Way of Life."
09. "The World Requires Choice and Resolution."
10. "We Know Exactly How You Think and How You`re Fighting!"
11. "We Cannot Decide Where We Go but You Can."
12. "Be Desperate and Draw Something Fascinating."
13. "An Unpredictable Story That No One Knows Where It`s Leading To."
14. "I Feel Painful and So Useless That I Want to Cry but It`s Fun Nevertheless."
15. "This Is Perfect! She Couldn`t Have Been Any More Perfect!"
16. "This Is the Actual Beginning, Isn`t It?"
17. "I Mean I`m the Creator."
18. "As Long as We`re Alive, We Have to Enjoy Our Lives to the Fullest."
19. "The Story Continues, As Long as There Is Someone out There, Who Believes in My Existence."
20. "Somebody Receives the Power of Creation, and the Spirit Is Redeveloped from Their Passion."
21. "I Love You Too."
22. Re:Creators

Media Info на первую серию


General
Unique ID : 197016671608128354010749471568883367384 (0x943807DE88E24ECF9E69CF736BB43DD8)
Complete name : Re:Creators [BDRip 1920x1080 x264 FLAC]\[Beatrice-Raws] Re:Creators 01 [BDRip 1920x1080 x264 FLAC].mkv
Format : Matroska
Format version : Version 4 / Version 2
File size : 1.38 GiB
Duration : 21 min 29 s
Overall bit rate mode : Variable
Overall bit rate : 9 202 kb/s
Encoded date : UTC 2017-06-25 11:53:44
Writing application : mkvmerge v8.2.0 ('World of Adventure') 64bit
Writing library : libebml v1.3.1 + libmatroska v1.4.2

Video
ID : 1
Format : AVC
Format/Info : Advanced Video Codec
Format profile : High 10@L5
Format settings : CABAC / 4 Ref Frames
Format settings, CABAC : Yes
Format settings, ReFrames : 4 frames
Codec ID : V_MPEG4/ISO/AVC
Duration : 21 min 29 s
Bit rate : 7 742 kb/s
Width : 1 920 pixels
Height : 1 080 pixels
Display aspect ratio : 16:9
Frame rate mode : Constant
Frame rate : 23.976 (24000/1001) FPS
Color space : YUV
Chroma subsampling : 4:2:0
Bit depth : 10 bits
Scan type : Progressive
Bits/(Pixel*Frame) : 0.156
Stream size : 1.16 GiB (84%)
Title : BDRip by DJATOM
Writing library : x264 core 148 r2597M e86f3a1 (DJATOM's build)
Encoding settings : cabac=1 / ref=4 / deblock=1:1:-1 / analyse=0x3:0x113 / me=umh / subme=9 / psy=1 / fade_compensate=0.00 / psy_rd=1.00:0.00 / mixed_ref=1 / me_range=32 / chroma_me=1 / trellis=2 / 8x8dct=1 / cqm=0 / deadzone=21,11 / fast_pskip=1 / chroma_qp_offset=-2 / threads=6 / lookahead_threads=1 / sliced_threads=0 / nr=0 / decimate=1 / interlaced=0 / bluray_compat=0 / constrained_intra=0 / bframes=9 / b_pyramid=2 / b_adapt=2 / b_bias=0 / direct=1 / weightb=1 / open_gop=0 / weightp=2 / keyint=250 / keyint_min=23 / scenecut=40 / intra_refresh=0 / rc=crf / mbtree=0 / crf=15.5000 / qcomp=0.72 / qpmin=0 / qpmax=81 / qpstep=4 / ip_ratio=1.40 / pb_ratio=1.30 / aq=1:0.85
Language : Japanese
Default : Yes
Forced : No
Color range : Limited
Color primaries : BT.709
Transfer characteristics : BT.709
Matrix coefficients : BT.709

Audio
ID : 2
Format : FLAC
Format/Info : Free Lossless Audio Codec
Codec ID : A_FLAC
Duration : 21 min 29 s
Bit rate mode : Variable
Bit rate : 1 458 kb/s
Channel(s) : 2 channels
Channel positions : Front: L R
Sampling rate : 48.0 kHz
Frame rate : 11.719 FPS (4096 SPF)
Bit depth : 24 bits
Stream size : 224 MiB (16%)
Title : LPCM->FLAC
Writing library : libFLAC 1.3.1 (UTC 2014-11-25)
Language : Japanese
Default : Yes
Forced : No

Menu
00:00:00.000 : en:Part A
00:10:48.064 : en:Part B
00:19:28.083 : en:ED

Смотреть Online

http://moonwalk.cc/serial/ece403981f18376aef1daa050ac7004e/iframe
Детали торрента:
Название:Re:Creators | Возрождающие [2017, TV, 22 эп.] BDrip 1080p 10bit raw
Дата добавления:11 Май 2018 17:26:57
Размер:34 GB
Раздают:8
Качают:1
Форум:Аниме (FullHD)

All rights reserved © 2015-2018