TORRENTS43.COM

Скачать Gekijouban Fate/Stay Night: Heaven's Feel | Судьба: Ночь схватки. Прикосновение небес [2017, Movie, 1 из 3 эп.] BDrip 1080p raw


Gekijouban Fate/Stay Night: Heaven's Feel
Судьба: Ночь схватки. Прикосновение небес
劇場版 Fate/stay night [Heaven's Feel]

Жанр: приключения, мистика
Тип: полнометражный фильм
Продолжительность: 3 фильма по 120 мин.
Количество фильмов: 1 из 3
Выпуск: c 14.10.2017
Производство: студия UFO Table
Автор оригинала: Насу Киноко
Режиссер: Судо Томонори
Ссылки: World-Art, ANN, AniDB, MyAnimeList
Описание:
Война Священного Грааля: жестокая битва между магами, в которой семь мастеров и их призванные слуги сражаются за Святой Грааль, магический артефакт, который может даровать победителю любое желание. Почти 10 лет назад Последняя битва четвертой войны Святого Грааля нанесла ущерб городу Фуюки и унесла более 500 жизней, оставив город опустошенным.
Широ Эмия, переживший эту трагедию, стремится стать героем справедливости, как его спаситель и приемный отец, Кирицугу Эмия. Несмотря на это, только будучи студентом Широ бросается в пятую войну Святого Грааля, когда он случайно видит битву между слугами в школе и призывает своего собственного слугу, Сэйбер.
Когда таинственная тень начинает убийственное веселье в городе Фуюки, Широ присоединяется к Рин Тосаке, соучастнику войны Святого Грааля, чтобы остановить гибель бесчисленного количества людей. Тем не менее, чувства Широ к его близкому другу Сакуре Мато ведут его глубже в темные тайны, окружающие войну и враждующие семьи.
Качество видео: BDrip
Видео: AVC (High@L4), 1920x1080 (16:9), ~23.976 fps, ~12.4 Mbps
Аудио: FLAC, 2 ch, 48 kHz, 24 bit, ~974 kbps | Звук: Японский
Язык озвучки: Японский
Субтитры: Русские
Перевод: SovetRomantica
Скриншоты:


Состав серии

#01 Судьба: Ночь схватки [ТВ-1] - ТВ (24 эп.), адаптация игры, 2006
#02 Судьба: Ночь схватки OVA - OVA (2 эп.), нарезка ТВ-сериала, 2010
#03 Судьба: Прототип - OVA (1 эп.), альтернативная версия, 2011
#04 Судьба: Ночь схватки. Клинков бесконечный край (фильм) - п/ф, адаптация игры, 2010
#05 Судьба: Начало [ТВ-1] - ТВ (13 эп. + спэшлы), предыстория, 2011
#06 Судьба: Начало [ТВ-2] - ТВ (12 эп.), продолжение, 2012
#07 Судьба: Девочка-волшебница Иллия [ТВ-1] - ТВ (10 эп. + 5 спэшлов), адаптация манги, 2013
#08 Судьба: Девочка-волшебница Иллия OVA-1 - OVA (1 эп.), дополнение, 2014
#09 Судьба: Девочка-волшебница Иллия [ТВ-2] - ТВ (10 эп.), продолжение, 2014
#10 Судьба: Девочка-волшебница Иллия OVA-2 - OVA (1 эп.), дополнение, 2015
#11 Судьба: Девочка-волшебница Иллия [ТВ-3] - ТВ (10 эп.), продолжение, 2015
#12 Судьба: Девочка-волшебница Иллия [ТВ-4] - ТВ (12 эп.), продолжение, 2016
#13 Судьба: Девочка-волшебница Иллия (фильм) - п/ф, продолжение, 2017
#14 Fate/Zero Cafe - к/ф, дополнение, 2013
#15 Судьба: Ночь схватки. Клинков бесконечный край [ТВ-1] - ТВ (12 эп. + спэшл), адаптация игры, 2014
#16 Судьба: Ночь схватки. Клинков бесконечный край [ТВ-2] - ТВ (13 эп. + спэшл), продолжение, 2015
#17 Fate/Grand Order: First Order - ТВ-спэшл, адаптация игры, 2016
#18 Судьба: Ночь схватки. Прикосновение небес - п/ф (3 эп.), адаптация игры, 2017
#19 Судьба: Апокриф - ТВ (25 эп.), адаптация ранобэ, 2017
#20 Судьба: Дополнение - ТВ (10 эп. + спэшлы), адаптация игры, 2018
#21 Fate/Grand Order: Moonlight/Lostroom - ТВ-спэшл, адаптация игры, 2017
#22 Fate/Grand Order x Himuro no Tenchi: 7-nin no Saikyou Ijin Hen - ТВ-спэшл, адаптация манги, 2017
#23 Сегодняшнее меню для Эмии - Web, адаптация манги, 2017

Media Info на первую серию


General
Unique ID : 4575123594832312389515155338130784589 (0x37123023F8F33C0FEF37411F362814D)
Complete name : Fate/Stay Night ~Heaven's Feel~ Presage Flower (BDRip 1920x1080 x264 FLAC)\[ReinForce] Fate/Stay Night ~Heaven's Feel~ Presage Flower (BDRip 1920x1080 x264 FLAC).mkv
Format : Matroska
Format version : Version 4 / Version 2
File size : 11.3 GiB
Duration : 2 h 0 min
Overall bit rate mode : Variable
Overall bit rate : 13.4 Mb/s
Encoded date : UTC 2018-05-09 09:01:54
Writing application : mkvmerge v22.0.0 ('At The End Of The World') 64-bit
Writing library : libebml v1.3.5 + libmatroska v1.4.8

Video
ID : 1
Format : AVC
Format/Info : Advanced Video Codec
Format profile : High@L4
Format settings : CABAC / 4 Ref Frames
Format settings, CABAC : Yes
Format settings, ReFrames : 4 frames
Codec ID : V_MPEG4/ISO/AVC
Duration : 2 h 0 min
Bit rate : 12.4 Mb/s
Width : 1 920 pixels
Height : 1 080 pixels
Display aspect ratio : 16:9
Frame rate mode : Constant
Frame rate : 23.976 (24000/1001) FPS
Color space : YUV
Chroma subsampling : 4:2:0
Bit depth : 8 bits
Scan type : Progressive
Bits/(Pixel*Frame) : 0.250
Stream size : 10.5 GiB (93%)
Writing library : x264 core 152
Encoding settings : opencl=1 / cabac=1 / ref=4 / deblock=1:-2:-2 / analyse=0x3:0x113 / me=umh / subme=10 / psy=1 / psy_rd=0.70:0.00 / mixed_ref=0 / me_range=32 / chroma_me=1 / trellis=2 / 8x8dct=1 / cqm=0 / deadzone=21,11 / fast_pskip=1 / chroma_qp_offset=-2 / threads=8 / lookahead_threads=1 / sliced_threads=0 / nr=0 / decimate=1 / interlaced=0 / bluray_compat=0 / constrained_intra=0 / bframes=9 / b_pyramid=2 / b_adapt=2 / b_bias=0 / direct=3 / weightb=1 / open_gop=0 / weightp=2 / keyint=250 / keyint_min=23 / scenecut=40 / intra_refresh=0 / rc_lookahead=40 / rc=crf / mbtree=1 / crf=15.0 / qcomp=0.70 / qpmin=10 / qpmax=20 / qpstep=4 / ip_ratio=1.40 / aq=1:1.00
Default : Yes
Forced : No

Audio
ID : 2
Format : FLAC
Format/Info : Free Lossless Audio Codec
Codec ID : A_FLAC
Duration : 2 h 0 min
Bit rate mode : Variable
Bit rate : 974 kb/s
Channel(s) : 2 channels
Channel positions : Front: L R
Sampling rate : 48.0 kHz
Frame rate : 10.417 FPS (4608 SPF)
Bit depth : 24 bits
Stream size : 840 MiB (7%)
Writing library : Lavf57.83.100
Language : Japanese
Default : Yes
Forced : No
Детали торрента:
Название:Gekijouban Fate/Stay Night: Heaven's Feel | Судьба: Ночь схватки. Прикосновение небес [2017, Movie, 1 из 3 эп.] BDrip 1080p raw
Дата добавления:11 Май 2018 17:28:15
Размер:15,1 GB
Раздают:5
Качают:0
Форум:Аниме (FullHD)

All rights reserved © 2015-2018