TORRENTS43.COM

Скачать Собака на сене (1977) WEB-DL [H.264/1080p-LQ]


Собака на сене (1977) WEB-DL [H.264/1080p-LQ]
Производство: СССР, киностудия: «Ленфильм»
Жанр: Комедия, Музыкальный

Режиссер: Ян Фрид
Актеры: Маргарита Терехова, Михаил Боярский, Армен Джигарханян, Елена Проклова, Зинаида Шарко, Виктор Ильичев, Игорь Дмитриев, Николай Караченцов, Гелена Ивлиева, Алексей Кожевников, Виталий Леонов, Федор Никитин, Эрнст Романов, Вадим Михайлов, Роман Фурман и др.

Описание:
Теодоро, секретарь графини Дианы де Бельфлёр, влюблён в горничную Марселу. Наблюдая за развитием их романа, госпожа неожиданно чувствует, как в ней просыпается ревность. Но условности и бремя предрассудков имеют сильную власть над независимой и своевольной Дианой. Она, подтрунивающая над своими знатными женихами, не может снизойти до того, чтобы признаться в любви безродному слуге…


Возраст: 12+ (зрителям, достигшим 12 лет)

Релиз от: HHD

Продолжительность: 01:04:56 + 01:03:47
Качество видео: WEB-DL

Видео: AVC/H.264, 1440х1080, ~15.0 Mbps
Аудио#1: AC3, 2 ch, 384 Kbps - Русский (iTunes)
Аудио#2: AC3, 6 ch, 448 Kbps - Русский (DVD9)

Mediainfo:


General
Unique ID : 88421308068541980074544372454394020191 (0x42855311FAFC85FFE6A0CE656E11C15F)
Complete name : F:MOVIESobaka_na_sene_WEB-DL_1080p_iTunes_HHDSobaka_na_sene_Seriya-01_WEB-DL_1080p_iTunes_HHD.mkv
Format : Matroska
Format version : Version 4 / Version 2
File size : 7.01 GiB
Duration : 1 h 4 min
Overall bit rate mode : Constant
Overall bit rate : 15.5 Mb/s
Movie name : Sobaka na sene Seriya-01 WEB-DL 1080p iTunes HHD
Encoded date : UTC 2018-05-11 13:21:42
Writing application : mkvmerge v23.0.0 ('The Bride Said No') 64-bit
Writing library : libebml v1.3.6 + libmatroska v1.4.9

Video
ID : 1
Format : AVC
Format/Info : Advanced Video Codec
Format profile : High@L4
Format settings, CABAC : Yes
Format settings, ReFrames : 4 frames
Codec ID : V_MPEG4/ISO/AVC
Duration : 1 h 4 min
Bit rate mode : Constant
Bit rate : 15.0 Mb/s / 15.0 Mb/s
Width : 1 440 pixels
Height : 1 080 pixels
Display aspect ratio : 4:3
Frame rate mode : Constant
Frame rate : 25.000 FPS
Standard : NTSC
Color space : YUV
Chroma subsampling : 4:2:0
Bit depth : 8 bits
Scan type : Progressive
Bits/(Pixel*Frame) : 0.386
Stream size : 6.63 GiB (95%)
Title : Sobaka na sene Seriya-01 WEB-DL 1080p iTunes HHD
Writing library : x264 core 114
Encoding settings : cabac=1 / ref=4 / deblock=1:0:0 / analyse=0x3:0x113 / me=hex / subme=7 / psy=1 / psy_rd=1.00:0.00 / mixed_ref=1 / me_range=16 / chroma_me=1 / trellis=1 / 8x8dct=1 / cqm=2 / deadzone=21,11 / fast_pskip=1 / chroma_qp_offset=-2 / threads=6 / sliced_threads=0 / slices=1 / nr=0 / decimate=1 / interlaced=0 / constrained_intra=0 / bframes=6 / b_pyramid=0 / b_adapt=1 / b_bias=0 / direct=1 / weightb=1 / open_gop=0 / weightp=2 / keyint=250 / keyint_min=120 / scenecut=100 / intra_refresh=0 / rc_lookahead=40 / rc=cbr / mbtree=1 / bitrate=15000 / ratetol=1.0 / qcomp=0.60 / qpmin=3 / qpmax=69 / qpstep=4 / vbv_maxrate=15000 / vbv_bufsize=14991 / nal_hrd=cbr / ip_ratio=1.40 / aq=1:1.00
Language : Russian
Default : Yes
Forced : Yes
Color range : Limited
Color primaries : BT.709
Transfer characteristics : BT.709
Matrix coefficients : BT.709

Audio #1
ID : 2
Format : AC-3
Format/Info : Audio Coding 3
Mode extension : CM (complete main)
Format settings, Endianness : Big
Codec ID : A_AC3
Duration : 1 h 4 min
Bit rate mode : Constant
Bit rate : 384 kb/s
Channel(s) : 2 channels
Channel positions : Front: L R
Sampling rate : 48.0 kHz
Frame rate : 31.250 FPS (1536 spf)
Bit depth : 16 bits
Compression mode : Lossy
Stream size : 178 MiB (2%)
Title : AC3 DD2.0 |iTunes|
Language : Russian
Default : Yes
Forced : Yes

Audio #2
ID : 3
Format : AC-3
Format/Info : Audio Coding 3
Mode extension : CM (complete main)
Format settings, Endianness : Big
Codec ID : A_AC3
Duration : 1 h 4 min
Bit rate mode : Constant
Bit rate : 448 kb/s
Channel(s) : 6 channels
Channel positions : Front: L C R, Side: L R, LFE
Sampling rate : 48.0 kHz
Frame rate : 31.250 FPS (1536 spf)
Bit depth : 16 bits
Compression mode : Lossy
Stream size : 208 MiB (3%)
Title : AC3 DD5.1 |DVD-9|
Language : Russian
Default : No
Forced : No

Дополнительная информация:

HDTV Россия-HD 1080i vs WEB-DL 1080p iTunes






WEB-DL 1080р vs HDTV Россия:



Скриншоты:


Все одноименные релизы в Клубе

Смотреть Online

http://moonwalk.cc/video/3a29a76af2d74d31/iframe
Детали торрента:
Название:Собака на сене (1977) WEB-DL [H.264/1080p-LQ]
Дата добавления:11 Май 2018 18:09:39
Размер:13,9 GB
Раздают:24
Качают:3
Форум:Отечественная Классика (HD*Rip/LQ, DVDRip, SATRip, VHSRip)

All rights reserved © 2015-2018