TORRENTS43.COM

Скачать По законам военного времени (2015-2018) WEBRip (сезон 1-2, серии 1-20 из 20)


По законам военного времени (2015-2018) WEBRip (сезон 1-2, серии 1-20 из 20)
Производство: Украина / "StarMedia"
Жанр: военный, драма, история

Режиссер: Максим Мехеда
Актеры: Евгений Воловенко, Екатерина Климова, Максим Дрозд, Сергей Сосновский, Валерий Сковронский, Игорь Петрусенко, Андрей Саминин, Пётр Крылов, Виталий Салий, Игорь Рубашкин и др.

Описание:
1 сезон: Июль 1941 года. Фашисты рвутся к Киеву. Обстановка в городе накаляется с каждым днем, что добавляет работы лучшему следователю киевской военной прокуратуры Ивану Рокотову. Из Москвы неожиданно прибывает заместитель главного военного прокурора РККА Николай Мирский. Он создает особый отдел в военной прокуратуре фронта, в который входят Рокотов и бывший следователь Днепропетровского УГРО Светлана Елагина...
2 сезон: Осень 1941 года. Чудом вырвавшиеся из киевского котла, следователи военной прокуратуры Рокотов, Мирский и Елагина прибывают в Харьков, где уже полным ходом идет эвакуация. У них на руках важные сведения о деятельности немецкой шпионской организации, которые нужно срочно передать в центр. Но неожиданный приказ руководства вынуждает их задержаться в Харькове...


Возраст: 12+ (зрителям, достигшим 12 лет)

Продолжительность: ~00:50:00 серия
Качество видео: WEBRip
Язык озвучки: русский

Видео: Xvid, 720x400 (16:9), ~1096 Kbps
Аудио: AC3, 2 ch, 192 Kbps

Mediainfo:


Общее
Полное имя : D:\Мои фильмы\Po_zakonam_voennogo_vremeni_S1-2_1-20iz20_2015-2018_XviD_WEBRip\Po_zakonam_voennogo_vremeni_S1_01.avi
Формат : AVI
Формат/Информация : Audio Video Interleave
Размер файла : 445 Мбайт
Продолжительность : 47 м. 59 с.
Общий поток : 1298 Кбит/сек
Программа кодирования : VirtualDubMod 1.5.10.3 www.virtualdub-fr.org || (build 2550/release)
Библиотека кодирования : VirtualDub2 build 41768/release

Видео
Идентификатор : 0
Формат : MPEG-4 Visual
Профиль формата : Advanced Simple@L5
Настройки формата : BVOP2
Параметр BVOP формата : 2
Параметр QPel формата : Нет
Параметр GMC формата : Без точки перехода
Параметр матрицы формата : Default (H.263)
Идентификатор кодека : XVID
Идентификатор кодека/Подсказка : XviD
Продолжительность : 47 м. 59 с.
Битрейт : 1096 Кбит/сек
Ширина : 720 пикселей
Высота : 400 пикселей
Соотношение сторон : 16:9
Частота кадров : 25,000 кадров/сек
Цветовое пространство : YUV
Субдискретизация насыщенности : 4:2:0
Битовая глубина : 8 бит
Тип развёртки : Прогрессивная
Метод сжатия : С потерями
Бит/(Пиксели*Кадры) : 0.152
Размер потока : 376 Мбайт (84%)
Библиотека кодирования : XviD 67

Аудио
Идентификатор : 1
Формат : AC-3
Формат/Информация : Audio Coding 3
Идентификатор кодека : 2000
Продолжительность : 47 м. 58 с.
Вид битрейта : Постоянный
Битрейт : 192 Кбит/сек
Каналы : 2 канала
Расположение каналов : Front: L R
Частота : 48,0 КГц
Частота кадров : 31,250 кадров/сек (1536 SPF)
Битовая глубина : 16 бит
Метод сжатия : С потерями
Размер потока : 65,9 Мбайт (15%)
Выравнивание : Разделение по промежуткам
Продолжительность промежутка : 40 мс. (1,00 видеокадр)
Время предзагрузки промежутка : 512 мс.
ServiceKind/String : Complete Main
Скриншоты:



Все одноименные релизы в Клубе

Детали торрента:
Название:По законам военного времени (2015-2018) WEBRip (сезон 1-2, серии 1-20 из 20)
Дата добавления:12 Май 2018 11:07:56
Размер:8,7 GB
Раздают:13
Качают:1
Форум:Сериалы ближнего зарубежья

All rights reserved © 2015-2018