TORRENTS43.COM

Скачать Хоккей. Чемпионат мира 2018. Группа A. Беларусь – Чехия (11.05.2018) HDTVRip [H.264/720p-LQ] [hand made 50fps]


Хоккей. Чемпионат мира 2018. Группа A. Беларусь – Чехия (11.05.2018) HDTVRip [H.264/720p-LQ]
«2018 IIHF World Championship»

Телекомпания: Матч ТВ HD
Жанр: Спорт

Комментаторы: Кирилл Корнилов, Роман Скворцов

Описание: 11 мая 2018 года, пятница. 21:15 МСК
82-й Чемпионат мира по хоккею с шайбой 2018 года
Группа A. 5-й Тур
Беларусь – Чехия
Стадион: Роял-Арена (Копенгаген, Дания), 5636 зрителей (45 % при вместимости 12500)
Главные судьи: Роман Гофман (Россия), Гордон Шукис (Германия)
Линейные судьи: Лукас Кольмюллер (Германия), Ханну Сормунен (Финляндия)

Релиз от: CSKAfan

Продолжительность: 02:02:11
Качество видео: HDTVRip
Язык озвучки: Русский, Интершум
Субтитры: отсутствуют

Видео: AVC/H.264, 1280x720 (16:9), ~4138 Kbps, 50 fps
Аудио #1: AC3, 2 ch, 48 kHz, 128 Kbps | Русский
Аудио #2: AC3, 2 ch, 48 kHz, 128 Kbps | Интершум

Mediainfo:


Общее
Уникальный идентификатор : 13866392521370458850154188939472424294 (0xA6E91EF4E0FF023BD45D444F3D44D66)
Полное имя : F:\SPORT\Хоккей\2018 IIHF Ice Hockey World Championship\(11.05.2018)_IIHF WCh 2018.PR5.Gr A. BLR - CZE.mkv
Формат : Matroska
Версия формата : Version 2
Размер файла : 3,83 Гбайт
Продолжительность : 2 ч. 2 м.
Общий поток : 4483 Кбит/сек
Программа кодирования : Lavf54.63.104
Библиотека кодирования : Lavf54.63.104

Видео
Идентификатор : 1
Формат : AVC
Формат/Информация : Advanced Video Codec
Профиль формата : High@L3.2
Настройки формата : CABAC / 4 Ref Frames
Параметр CABAC формата : Да
Параметр RefFrames формата : 4 кадра
Параметр GOP формата : M=2, N=15
Идентификатор кодека : V_MPEG4/ISO/AVC
Продолжительность : 2 ч. 2 м.
Битрейт : 4138 Кбит/сек
Ширина : 1280 пикселей
Высота : 720 пикселей
Соотношение сторон : 16:9
Режим частоты кадров : Постоянный
Частота кадров : 50,000 кадров/сек
Цветовое пространство : YUV
Субдискретизация насыщенности : 4:2:0
Битовая глубина : 8 бит
Тип развёртки : Прогрессивная
Бит/(Пиксели*Кадры) : 0.090
Размер потока : 3,53 Гбайт (92%)
Default : Нет
Forced : Нет

Аудио #1
Идентификатор : 2
Формат : AC-3
Формат/Информация : Audio Coding 3
Идентификатор кодека : A_AC3
Продолжительность : 2 ч. 2 м.
Вид битрейта : Постоянный
Битрейт : 128 Кбит/сек
Каналы : 2 канала
Расположение каналов : Front: L R
Частота : 48,0 КГц
Частота кадров : 31,250 кадров/сек (1536 SPF)
Битовая глубина : 16 бит
Метод сжатия : С потерями
Размер потока : 112 Мбайт (3%)
Язык : Russian
ServiceKind/String : Complete Main
Default : Да
Forced : Нет

Аудио #2
Идентификатор : 3
Формат : AC-3
Формат/Информация : Audio Coding 3
Идентификатор кодека : A_AC3
Продолжительность : 2 ч. 2 м.
Вид битрейта : Постоянный
Битрейт : 128 Кбит/сек
Каналы : 2 канала
Расположение каналов : Front: L R
Частота : 48,0 КГц
Частота кадров : 31,250 кадров/сек (1536 SPF)
Битовая глубина : 16 бит
Метод сжатия : С потерями
Размер потока : 112 Мбайт (3%)
ServiceKind/String : Complete Main
Default : Нет
Forced : Нет
Скриншоты:


Все одноименные релизы в Клубе
Детали торрента:
Название:Хоккей. Чемпионат мира 2018. Группа A. Беларусь – Чехия (11.05.2018) HDTVRip [H.264/720p-LQ] [hand made 50fps]
Дата добавления:12 Май 2018 16:00:42
Размер:3,55 GB
Раздают:2
Качают:0
Форум:Хоккей. Чемпионат мира 2018

All rights reserved © 2015-2018