TORRENTS43.COM

Скачать Хоккей. Чемпионат мира 2018. Группа B. Дания — Норвегия (11.05.2018) HDTVRip [H.264/720p-LQ] [hand made 50fps]


Хоккей. Чемпионат мира 2018. Группа B. Дания — Норвегия (11.05.2018) HDTVRip [H.264/720p-LQ]
«2018 IIHF World Championship»

Телекомпания: Матч! Игра HD
Жанр: Спорт

Комментатор: Денис Казанский

Описание: 11 мая 2018 года, пятница. 17:15 МСК
82-й Чемпионат мира по хоккею с шайбой 2018 года
Группа B. 5-й Тур
Дания — Норвегия
Стадион: Йюске Банк Боксен (Хернинг, Дания), 10800 зрителей (98 % при вместимости 11000)
Главные судьи: Ян Грибик (Чехия), Тимоти Майер (США)
Линейные судьи: Дастин Маккранк (Канада), Петер Шефчик (Словакия)

Релиз от: REXNN52

Продолжительность: 01:54:20
Качество видео: HDTVRip
Язык озвучки: Русский
Субтитры: отсутствуют

Видео: AVC/H.264, 1280x720 (16:9), ~3742 Kbps, 50 fps
Аудио: AC3, 2 ch, 48 kHz, 192 Kbps

Mediainfo:


Общее
Уникальный идентификатор : 187419750776576407974139666404186074679 (0x8CFFBB24100041E59B229C9597692E37)
Полное имя : F:\SPORT\Хоккей\2018 IIHF Ice Hockey World Championship\(11.05.2018)_IIHF WCh 2018.PR5.Gr B. DEN - NOR.mkv
Формат : Matroska
Версия формата : Version 2
Размер файла : 3,21 Гбайт
Продолжительность : 1 ч. 54 м.
Общий поток : 4014 Кбит/сек
Дата кодирования : UTC 2018-05-11 17:19:50
Программа кодирования : mkvmerge v5.1.0 ('And so it goes') built on Nov 28 2011 23:58:28
Библиотека кодирования : libebml v1.2.3 + libmatroska v1.3.0 / Lavf57.71.100

Видео
Идентификатор : 1
Формат : AVC
Формат/Информация : Advanced Video Codec
Профиль формата : High@L4.1
Настройки формата : CABAC / 4 Ref Frames
Параметр CABAC формата : Да
Параметр RefFrames формата : 4 кадра
Идентификатор кодека : V_MPEG4/ISO/AVC
Продолжительность : 1 ч. 54 м.
Битрейт : 3742 Кбит/сек
Номинальный битрейт : 4000 Кбит/сек
Ширина : 1280 пикселей
Высота : 720 пикселей
Соотношение сторон : 16:9
Режим частоты кадров : Постоянный
Частота кадров : 50,000 кадров/сек
Цветовое пространство : YUV
Субдискретизация насыщенности : 4:2:0
Битовая глубина : 8 бит
Тип развёртки : Прогрессивная
Бит/(Пиксели*Кадры) : 0.081
Размер потока : 2,99 Гбайт (93%)
Библиотека кодирования : x264 core 155 r2901M 7d0ff22
Настройки программы : cabac=1 / ref=3 / deblock=1:-2:-2 / analyse=0x3:0x133 / me=hex / subme=7 / psy=1 / psy_rd=1.00:0.20 / mixed_ref=1 / me_range=16 / chroma_me=1 / trellis=1 / 8x8dct=1 / cqm=0 / deadzone=21,11 / fast_pskip=1 / chroma_qp_offset=-3 / threads=9 / lookahead_threads=1 / sliced_threads=0 / nr=0 / decimate=1 / interlaced=0 / bluray_compat=0 / constrained_intra=0 / bframes=3 / b_pyramid=2 / b_adapt=2 / b_bias=0 / direct=3 / weightb=1 / open_gop=0 / weightp=2 / keyint=500 / keyint_min=50 / scenecut=40 / intra_refresh=0 / rc_lookahead=40 / rc=cbr / mbtree=1 / bitrate=4000 / ratetol=1.0 / qcomp=0.60 / qpmin=0 / qpmax=69 / qpstep=4 / vbv_maxrate=4000 / vbv_bufsize=2857 / nal_hrd=none / filler=0 / ip_ratio=1.40 / aq=1:1.00
Default : Да
Forced : Нет

Аудио
Идентификатор : 2
Формат : AC-3
Формат/Информация : Audio Coding 3
Идентификатор кодека : A_AC3
Продолжительность : 1 ч. 54 м.
Вид битрейта : Постоянный
Битрейт : 192 Кбит/сек
Каналы : 2 канала
Расположение каналов : Front: L R
Частота : 48,0 КГц
Частота кадров : 31,250 кадров/сек (1536 SPF)
Битовая глубина : 16 бит
Метод сжатия : С потерями
Размер потока : 157 Мбайт (5%)
Язык : English
ServiceKind/String : Complete Main
Default : Да
Forced : Нет
Скриншоты:


Все одноименные релизы в Клубе

Смотреть Online

http://moonwalk.cc/video/2e11f7ca3651819c/iframe
Детали торрента:
Название:Хоккей. Чемпионат мира 2018. Группа B. Дания — Норвегия (11.05.2018) HDTVRip [H.264/720p-LQ] [hand made 50fps]
Дата добавления:12 Май 2018 21:41:29
Размер:3,21 GB
Раздают:2
Качают:0
Форум:Хоккей. Чемпионат мира 2018

All rights reserved © 2015-2018