TORRENTS43.COM

Скачать Точка кипения / Boiling Point (1993) DVDRip [H.264]


Точка кипения / Boiling Point (1993) DVDRip [H.264]
Производство: США, Франция / Studio Canal
Жанр: Боевик, Триллер, Драма, Криминал

Режиссер: Джеймс Б. Харрис
Продюсер: Леонардо Де Ла Фуэнте, Марк Фридман, Патрик Бофронт
Актеры: Уэсли Снайпс, Деннис Хоппер, Лолита Давидович, Вигго Мортенсен, Сеймур Кэссел, Джонатан Бэнкс, Кристин Элиз, Тони Ло Бьянко, Валери Перрайн, Джеймс Толкан

Описание:
Полицейский и преступник идут по кровавому следу фальшивых денег. У каждого из них своя «точка кипения». Операция полицейских по захвату группы торговцев наркотиками закончилась трагической неудачей. Только что вышедший из тюрьмы бандит Ред и его сообщник Ронни захватили подготовленные для обмена на наркотики фальшивые деньги и убили полицейского, работавшего «под прикрытием».
Но это стало их роковой ошибкой. Убийство друга доводит до «точки кипения» самого крутого полицейского в Лос-Анджелесе — детектива Джимми Мерсера. Опираясь на единственную улику — «всплывшую» поддельную купюру, Джимми уверенно и хладнокровно идет по кровавому следу фальшивых денег, мстя за смерть своего напарника и друга.


Возраст: 0+ (для любой зрительской аудитории)
Рейтинг MPAA: R (лицам до 17 лет обязательно присутствие взрослого)

Релиз от: Охрана (Torrents43.com)
Продолжительность: 01:28:46
Качество видео: DVDRip
Перевод: Двухголосый закадровый, авторский
Субтитры: Отсутствуют

Видео: AVC/H.264, 720x384, ~1980 Kbps
Аудио 1: Русский, AC3, 2 ch, 192 Kbps, 48.0 kHz (DVO, Екатеринбург Арт)
Аудио 2: Русский, AC3, 2 ch, 192 Kbps, 48.0 kHz (AVO, А.Гаврилов)
Аудио 3: Английский, AC3, 2 ch, 192 Kbps, 48.0 kHz (Оригинал)

Mediainfo:


Общее
Уникальный идентификатор : 173326312695458333124531337918437409558 (0x82656EFEE7AAD760A56C62F318B84316)
Полное имя : F:\Downloads\Точка кипения. 1993. torrents43.comv
Формат : Matroska
Версия формата : Version 4 / Version 2
Размер файла : 1,59 Гбайт
Продолжительность : 1 ч. 28 м.
Общий поток : 2558 Кбит/сек
Дата кодирования : UTC 2018-05-14 22:28:15
Программа кодирования : mkvmerge v7.9.0 ('Birds') 64bit
Библиотека кодирования : libebml v1.3.1 + libmatroska v1.4.2

Видео
Идентификатор : 1
Формат : AVC
Формат/Информация : Advanced Video Codec
Профиль формата : High@L4.1
Настройки формата : CABAC / 12 Ref Frames
Параметр CABAC формата : Да
Параметр RefFrames формата : 12 кадров
Идентификатор кодека : V_MPEG4/ISO/AVC
Продолжительность : 1 ч. 28 м.
Битрейт : 1980 Кбит/сек
Ширина : 720 пикселей
Высота : 384 пикселя
Соотношение сторон : 1,85:1
Режим частоты кадров : Постоянный
Частота кадров : 25,000 кадров/сек
Цветовое пространство : YUV
Субдискретизация насыщенности : 4:2:0
Битовая глубина : 8 бит
Тип развёртки : Прогрессивная
Бит/(Пиксели*Кадры) : 0.286
Размер потока : 1,23 Гбайт (77%)
Заголовок : Boiling Point
Библиотека кодирования : x264 core 146 r2538 121396c
Настройки программы : cabac=1 / ref=12 / deblock=1:-1:-1 / analyse=0x3:0x113 / me=umh / subme=10 / psy=1 / psy_rd=1.00:0.10 / mixed_ref=1 / me_range=32 / chroma_me=1 / trellis=2 / 8x8dct=1 / cqm=0 / deadzone=21,11 / fast_pskip=0 / chroma_qp_offset=-3 / threads=6 / lookahead_threads=1 / sliced_threads=0 / nr=0 / decimate=0 / interlaced=0 / bluray_compat=0 / constrained_intra=0 / bframes=7 / b_pyramid=2 / b_adapt=2 / b_bias=0 / direct=3 / weightb=1 / open_gop=0 / weightp=2 / keyint=250 / keyint_min=25 / scenecut=40 / intra_refresh=0 / rc_lookahead=60 / rc=2pass / mbtree=1 / bitrate=1980 / ratetol=1.0 / qcomp=0.60 / qpmin=0 / qpmax=69 / qpstep=4 / cplxblur=20.0 / qblur=0.5 / vbv_maxrate=14000 / vbv_bufsize=14000 / nal_hrd=none / filler=0 / ip_ratio=1.40 / aq=1:1.00
Язык : English
Default : Да
Forced : Нет

Аудио #1
Идентификатор : 2
Формат : AC-3
Формат/Информация : Audio Coding 3
Идентификатор кодека : A_AC3
Продолжительность : 1 ч. 28 м.
Вид битрейта : Постоянный
Битрейт : 192 Кбит/сек
Каналы : 2 канала
Расположение каналов : Front: L R
Частота : 48,0 КГц
Частота кадров : 31,250 кадров/сек (1536 SPF)
Битовая глубина : 16 бит
Метод сжатия : С потерями
Размер потока : 122 Мбайт (8%)
Заголовок : Двухголосый закадровый, Екатеринбург Арт
Язык : Russian
ServiceKind/String : Complete Main
Default : Да
Forced : Нет

Аудио #2
Идентификатор : 3
Формат : AC-3
Формат/Информация : Audio Coding 3
Идентификатор кодека : A_AC3
Продолжительность : 1 ч. 28 м.
Вид битрейта : Постоянный
Битрейт : 192 Кбит/сек
Каналы : 2 канала
Расположение каналов : Front: L R
Частота : 48,0 КГц
Частота кадров : 31,250 кадров/сек (1536 SPF)
Битовая глубина : 16 бит
Метод сжатия : С потерями
Размер потока : 122 Мбайт (8%)
Заголовок : Авторский, А. Гаврилов
Язык : Russian
ServiceKind/String : Complete Main
Default : Нет
Forced : Нет

Аудио #3
Идентификатор : 4
Формат : AC-3
Формат/Информация : Audio Coding 3
Идентификатор кодека : A_AC3
Продолжительность : 1 ч. 28 м.
Вид битрейта : Постоянный
Битрейт : 192 Кбит/сек
Каналы : 2 канала
Расположение каналов : Front: L R
Частота : 48,0 КГц
Частота кадров : 31,250 кадров/сек (1536 SPF)
Битовая глубина : 16 бит
Метод сжатия : С потерями
Размер потока : 122 Мбайт (8%)
Заголовок : Оригинал
Язык : English
ServiceKind/String : Complete Main
Default : Нет
Forced : Нет
Скриншоты:

Дополнительные скриншоты:



Все одноименные релизы в Клубе

Смотреть Online

http://moonwalk.cc/video/748597976f6ac9ce/iframe
Детали торрента:
Название:Точка кипения / Boiling Point (1993) DVDRip [H.264]
Дата добавления:16 Май 2018 12:26:26
Размер:1,59 GB
Раздают:18
Качают:2
Форум:Зарубежные Фильмы (HD*Rip/LQ, DVDRip, SATRip, VHSRip)

All rights reserved © 2015-2018