TORRENTS43.COM

Скачать Fluxion - Discography 21 Releases (1999-2018) Chain Reaction, Subwax Bcn, Vibrant Music, Echocord [FLAC|Lossless|tracks+.cue, tracks] <Dub Techno, Minimal, Techno, Dub, Ambient>


Fluxion Discography

Fluxion is a pseudonym of Konstantinos Soublis (aka K. Soublis), an electronic music producer from Athens, Greece.
Жанр: Dub Techno, Minimal, Techno, Dub, Ambient • Страна: Greece • Год: 1999-2018 • Тип издания: CD, WEB, Vinyl
Аудиокодек: FLAC (*.flac) • Тип рипа: tracks+.cue, tracks • Продолжительность:19:21:17 • Источник: What, RED, boomkat
Треклист:

Albums

2001 Spaces (CD)

Год выпуска: 2001
Жанр: Minimal/Ambient
Продолжительность: 00:52:30
Треклист:

01. Field I (04:09)
02. Surface (01:59)
03. East Continnum (03:44)
04. Coast (05:35)
05. Distant Ear (01:34)
06. Plain (03:28)
07. Unechoic Room (08:00)
08. Emergence (00:56)
09. Corridor (08:04)
10. Cylindral (02:02)
11. Field II (06:39)
12. Decay Section (06:20)

EAC


EAC extraction logfile from 24. October 2006, 2:21 for CD
Fluxion / Spaces

Used drive : MATSHITADVD/CDRW UJDA770 Adapter: 1 ID: 0
Read mode : Secure with NO C2, accurate stream, disable cache
Read offset correction : 102
Overread into Lead-In and Lead-Out : No

Used output format : C:\Program Files\FLAC\flac.exe (User Defined Encoder)
192 kBit/s
Additional command line options : -V -8 -T "artist=%a" -T "title=%t" -T "album=%g" -T "date=%y" -T "tracknumber=%n" -T "genre=%m" %s

Other options :
Fill up missing offset samples with silence : Yes
Delete leading and trailing silent blocks : No
Native Win32 interface for Win NT & 2000

Track 1
Filename C:\Fluxion - Spaces (2001)\01 - field I.wav

Pre-gap length 0:00:02.00

Peak level 98.8 %
Track quality 100.0 %
Test CRC 30A3DCC5
Copy CRC 30A3DCC5
Copy OK

Track 2
Filename C:\Fluxion - Spaces (2001)\02 - surface.wav

Pre-gap length 0:00:02.00

Peak level 98.8 %
Track quality 100.0 %
Test CRC 895717B9
Copy CRC 895717B9
Copy OK

Track 3
Filename C:\Fluxion - Spaces (2001)\03 - east continnum.wav

Pre-gap length 0:00:02.00

Peak level 98.8 %
Track quality 99.9 %
Test CRC DD6E04EF
Copy CRC DD6E04EF
Copy OK

Track 4
Filename C:\Fluxion - Spaces (2001)\04 - coast.wav

Pre-gap length 0:00:02.00

Peak level 98.8 %
Track quality 100.0 %
Test CRC 67D88926
Copy CRC 67D88926
Copy OK

Track 5
Filename C:\Fluxion - Spaces (2001)\05 - distant ear.wav

Pre-gap length 0:00:02.00

Peak level 83.9 %
Track quality 100.0 %
Test CRC 1DB21039
Copy CRC 1DB21039
Copy OK

Track 6
Filename C:\Fluxion - Spaces (2001)\06 - plain.wav

Pre-gap length 0:00:02.00

Peak level 98.8 %
Track quality 100.0 %
Test CRC 3D5A129D
Copy CRC 3D5A129D
Copy OK

Track 7
Filename C:\Fluxion - Spaces (2001)\07 - unechoic room.wav

Pre-gap length 0:00:02.00

Peak level 98.8 %
Track quality 100.0 %
Test CRC EC018DCD
Copy CRC EC018DCD
Copy OK

Track 8
Filename C:\Fluxion - Spaces (2001)\08 - emergence.wav

Pre-gap length 0:00:02.00

Peak level 98.8 %
Track quality 100.0 %
Test CRC 8D7931F7
Copy CRC 8D7931F7
Copy OK

Track 9
Filename C:\Fluxion - Spaces (2001)\09 - corridor.wav

Pre-gap length 0:00:02.00

Peak level 98.8 %
Track quality 100.0 %
Test CRC B0D1BE7B
Copy CRC B0D1BE7B
Copy OK

Track 10
Filename C:\Fluxion - Spaces (2001)\10 - cylindral.wav

Pre-gap length 0:00:02.00

Peak level 98.8 %
Track quality 100.0 %
Test CRC DFB5FAD1
Copy CRC DFB5FAD1
Copy OK

Track 11
Filename C:\Fluxion - Spaces (2001)\11 - field II.wav

Pre-gap length 0:00:02.00

Peak level 98.8 %
Track quality 100.0 %
Test CRC 37A14A3E
Copy CRC 37A14A3E
Copy OK

Track 12
Filename C:\Fluxion - Spaces (2001)\12 - decay section.wav

Pre-gap length 0:00:02.00

Peak level 98.8 %
Track quality 100.0 %
Test CRC 5DCCBB92
Copy CRC 5DCCBB92
Copy OK

No errors occured

End of status report

CUE


REM GENRE Minimal
REM DATE 2001
REM DISCID 8C0C4E0C
REM COMMENT "ExactAudioCopy v0.95b4"
PERFORMER "Fluxion"
TITLE "Spaces"
FILE "01. Field I.wav" WAVE
TRACK 01 AUDIO
TITLE "field I"
PERFORMER "Fluxion"
INDEX 01 00:00:00
TRACK 02 AUDIO
TITLE "surface"
PERFORMER "Fluxion"
INDEX 00 04:06:56
FILE "02. Surface.wav" WAVE
INDEX 01 00:00:00
TRACK 03 AUDIO
TITLE "east continnum"
PERFORMER "Fluxion"
INDEX 00 01:57:33
FILE "03. East Continnum.wav" WAVE
INDEX 01 00:00:00
TRACK 04 AUDIO
TITLE "coast"
PERFORMER "Fluxion"
INDEX 00 03:42:08
FILE "04. Coast.wav" WAVE
INDEX 01 00:00:00
TRACK 05 AUDIO
TITLE "distant ear"
PERFORMER "Fluxion"
INDEX 00 05:32:43
FILE "05. Distant Ear.wav" WAVE
INDEX 01 00:00:00
TRACK 06 AUDIO
TITLE "plain"
PERFORMER "Fluxion"
INDEX 00 01:32:03
FILE "06. Plain.wav" WAVE
INDEX 01 00:00:00
TRACK 07 AUDIO
TITLE "unechoic room"
PERFORMER "Fluxion"
INDEX 00 03:26:33
FILE "07. Unechoic Room.wav" WAVE
INDEX 01 00:00:00
TRACK 08 AUDIO
TITLE "emergence"
PERFORMER "Fluxion"
INDEX 00 07:58:18
FILE "08. Emergence.wav" WAVE
INDEX 01 00:00:00
TRACK 09 AUDIO
TITLE "corridor"
PERFORMER "Fluxion"
INDEX 00 00:54:11
FILE "09. Corridor.wav" WAVE
INDEX 01 00:00:00
TRACK 10 AUDIO
TITLE "cylindral"
PERFORMER "Fluxion"
INDEX 00 08:01:38
FILE "10. Cylindral.wav" WAVE
INDEX 01 00:00:00
TRACK 11 AUDIO
TITLE "field II"
PERFORMER "Fluxion"
INDEX 00 01:59:43
FILE "11. Field II.wav" WAVE
INDEX 01 00:00:00
TRACK 12 AUDIO
TITLE "decay section"
PERFORMER "Fluxion"
INDEX 00 06:36:73
FILE "12. Decay Section.wav" WAVE
INDEX 01 00:00:00

2009 Constant Limber (WEB)

Год выпуска: 2009
Жанр: Dub Techno/Minimal
Продолжительность: 01:38:12
Треклист:

01. Sub Marine (07:07)
02. Thumb (05:47)
03. Marching (08:42)
04. Breath Mode (09:05)
05. Midnight Call (feat. Nynn) (05:39)
06. Bureaucrat (10:20)
07. Spout (08:56)
08. Fickle (08:59)
09. Orpidoe (08:17)
10. Midnight Call (Dub Mix) (07:42)
11. Sub Surface (08:33)
12. Current Flow (09:05)

Лог проверки качества


-----------------------

DON'T MODIFY THIS FILE

-----------------------

PERFORMER: auCDtect Task Manager, ver. 1.6.0 RC1 build 1.6.0.1
Copyright (c) 2008-2010 y-soft. All rights reserved
http://y-soft.org

ANALYZER: auCDtect: CD records authenticity detector, version 0.8.2
Copyright (c) 2004 Oleg Berngardt. All rights reserved.
Copyright (c) 2004 Alexander Djourik. All rights reserved.

FILE: 12. Current Flow.flac
Size: 47380663 Hash: 8D6BD229244F049AE233EBA43CE17AA1 Accuracy: -m0
Conclusion: CDDA 99%
Signature: 18666BB7273495A82CDE9FFD3C4F3FFDB26056AC
FILE: 11. Sub Surface.flac
Size: 51234574 Hash: B46452290FD08B5BEA39F769A4D4A8EE Accuracy: -m0
Conclusion: CDDA 100%
Signature: 4C39C580ED945531A32A867807ED5E0FA926F91C
FILE: 10. Midnight Call (Dub Mix).flac
Size: 39212355 Hash: 4BC9117C48FBCE8A5858265455902E5F Accuracy: -m0
Conclusion: CDDA 100%
Signature: 02859DB31F30310675A496654732E2C4ADE2E0CC
FILE: 09. Orpidoe.flac
Size: 47316159 Hash: 2D76AB45F53FC182218AD6FD75CC20EF Accuracy: -m0
Conclusion: CDDA 100%
Signature: AB21E89490E6BD22D7EFD3519F20D8A8520D2D07
FILE: 08. Fickle.flac
Size: 48069375 Hash: 0595076E5D37CF1C1234C570FA2E042B Accuracy: -m0
Conclusion: CDDA 100%
Signature: EA9217966DB1B9ADCE6E5A0AA6317A62E8424553
FILE: 07. Spout.flac
Size: 48709357 Hash: 27E9C061146E2E9C21FD41C12119ACF4 Accuracy: -m0
Conclusion: CDDA 100%
Signature: 497CC64038AEC79E5DB2A0CF55918D0FE197E683
FILE: 06. Bureaucrat.flac
Size: 61367040 Hash: F52CBDC128F07496ED8E1E031C0757C7 Accuracy: -m0
Conclusion: CDDA 99%
Signature: 5E5C8296265C75FDA4D3D5870F08D4B28183F4D4
FILE: 05. Midnight Call (feat. Nynn).flac
Size: 35383363 Hash: 4DEE50150CC601C3F5F6E893CFC12974 Accuracy: -m0
Conclusion: CDDA 99%
Signature: D90AEFF2617221CEB8BB3C6B61FB602798D43624
FILE: 04. Breath Mode.flac
Size: 48756352 Hash: 4F00D14317D854B8F642D781B9B12977 Accuracy: -m0
Conclusion: CDDA 100%
Signature: 343CC95B2179F60EEFC69AAABA510390A500192E
FILE: 03. Marching.flac
Size: 54863424 Hash: 345542518DF90058508BA63D4F232010 Accuracy: -m0
Conclusion: CDDA 100%
Signature: 5C2DFDF6179A751A5EA3ED5754374454EEC99383
FILE: 02. Thumb.flac
Size: 32010137 Hash: BFC887A12DA6B862A1E7FC2DE62D80B3 Accuracy: -m0
Conclusion: CDDA 100%
Signature: F833ABBE16E6C3F3CCD73CB4253672685D6FB3CA
FILE: 01. Sub Marine.flac
Size: 42815051 Hash: B5DB55D0F0D89A89AF6FB5B20FA291AB Accuracy: -m0
Conclusion: CDDA 100%
Signature: 9E33A56EC7CB1D67094FCCAFD80FA82190F98EE9

2010 Perfused (CD)

Год выпуска: 2010
Жанр: Dub Techno
Продолжительность: 01:05:10
Треклист:

01. Horizons (06:14)
02. Waves (08:27)
03. Tantalizer (05:09)
04. Inflection (07:59)
05. Wabbler (06:32)
06. Elation (05:42)
07. Fluctuations (08:11)
08. Inductance (08:24)
09. Perfuse (08:32)

EAC


Exact Audio Copy V0.99 prebeta 4 from 23. January 2008

EAC extraction logfile from 6. April 2010, 15:07

Fluxion / Perfused

Used drive : Optiarc DVD RW AD-7201A Adapter: 0 ID: 0

Read mode : Secure
Utilize accurate stream : Yes
Defeat audio cache : Yes
Make use of C2 pointers : No

Read offset correction : 48
Overread into Lead-In and Lead-Out : No
Fill up missing offset samples with silence : Yes
Delete leading and trailing silent blocks : No
Null samples used in CRC calculations : Yes
Used interface : Native Win32 interface for Win NT & 2000
Gap handling : Appended to previous track

Used output format : User Defined Encoder
Selected bitrate : 128 kBit/s
Quality : High
Add ID3 tag : No
Command line compressor : C:\Program Files\Exact Audio Copy\Flac\flac.exe
Additional command line options : -8 -V -T "ARTIST=%a" -T "TITLE=%t" -T "ALBUM=%g" -T "DATE=%y" -T "TRACKNUMBER=%n" -T "GENRE=%m" -T "COMMENT=EAC FLAC -8" %s

TOC of the extracted CD

Track | Start | Length | Start sector | End sector
---------------------------------------------------------
1 | 0:00.00 | 6:13.68 | 0 | 28042
2 | 6:13.68 | 8:27.22 | 28043 | 66089
3 | 14:41.15 | 5:09.23 | 66090 | 89287
4 | 19:50.38 | 7:58.74 | 89288 | 125211
5 | 27:49.37 | 6:31.69 | 125212 | 154605
6 | 34:21.31 | 5:42.14 | 154606 | 180269
7 | 40:03.45 | 8:10.55 | 180270 | 217074
8 | 48:14.25 | 8:24.37 | 217075 | 254911
9 | 56:38.62 | 8:31.51 | 254912 | 293287

Track 1

Filename F:\Torrents\Fluxion - Perfused\Fluxion - Perfused\01. Fluxion - Horizons.wav

Pre-gap length 0:00:02.00

Peak level 96.6 %
Track quality 99.9 %
Test CRC FC40BB03
Copy CRC FC40BB03
Track not present in AccurateRip database
Copy OK

Track 2

Filename F:\Torrents\Fluxion - Perfused\Fluxion - Perfused\02. Fluxion - Waves.wav

Pre-gap length 0:00:02.00

Peak level 96.6 %
Track quality 100.0 %
Test CRC C0C5973A
Copy CRC C0C5973A
Track not present in AccurateRip database
Copy OK

Track 3

Filename F:\Torrents\Fluxion - Perfused\Fluxion - Perfused\03. Fluxion - Tantalizer.wav

Pre-gap length 0:00:02.00

Peak level 96.6 %
Track quality 100.0 %
Test CRC 1F15A616
Copy CRC 1F15A616
Track not present in AccurateRip database
Copy OK

Track 4

Filename F:\Torrents\Fluxion - Perfused\Fluxion - Perfused\04. Fluxion - Inflection.wav

Pre-gap length 0:00:02.00

Peak level 96.6 %
Track quality 100.0 %
Test CRC F9973A55
Copy CRC F9973A55
Track not present in AccurateRip database
Copy OK

Track 5

Filename F:\Torrents\Fluxion - Perfused\Fluxion - Perfused\05. Fluxion - Wabbler.wav

Pre-gap length 0:00:02.00

Peak level 96.6 %
Track quality 100.0 %
Test CRC 61A8DDB4
Copy CRC 61A8DDB4
Track not present in AccurateRip database
Copy OK

Track 6

Filename F:\Torrents\Fluxion - Perfused\Fluxion - Perfused\06. Fluxion - Elation.wav

Pre-gap length 0:00:02.00

Peak level 96.6 %
Track quality 100.0 %
Test CRC 22133E52
Copy CRC 22133E52
Track not present in AccurateRip database
Copy OK

Track 7

Filename F:\Torrents\Fluxion - Perfused\Fluxion - Perfused\07. Fluxion - Fluctuations.wav

Pre-gap length 0:00:02.00

Peak level 96.6 %
Track quality 100.0 %
Test CRC E0AB5D67
Copy CRC E0AB5D67
Track not present in AccurateRip database
Copy OK

Track 8

Filename F:\Torrents\Fluxion - Perfused\Fluxion - Perfused\08. Fluxion - Inductance.wav

Pre-gap length 0:00:02.00

Peak level 96.6 %
Track quality 100.0 %
Test CRC 22B0DFCD
Copy CRC 22B0DFCD
Track not present in AccurateRip database
Copy OK

Track 9

Filename F:\Torrents\Fluxion - Perfused\Fluxion - Perfused\09. Fluxion - Perfuse.wav

Pre-gap length 0:00:02.00

Peak level 96.6 %
Track quality 100.0 %
Test CRC CD54D12A
Copy CRC CD54D12A
Track not present in AccurateRip database
Copy OK

None of the tracks are present in the AccurateRip database

No errors occurred

End of status report

CUE


REM GENRE "Dub Techno"
REM DATE 2010
REM DISCID 760F4609
REM COMMENT "ExactAudioCopy v0.99pb4"
PERFORMER "Fluxion"
TITLE "Perfused"
FILE "01. Fluxion - Horizons.wav" WAVE
TRACK 01 AUDIO
TITLE "Horizons"
PERFORMER "Fluxion"
ISRC DEU671001003
INDEX 01 00:00:00
TRACK 02 AUDIO
TITLE "Waves"
PERFORMER "Fluxion"
ISRC DEU671001004
INDEX 00 06:11:68
FILE "02. Fluxion - Waves.wav" WAVE
INDEX 01 00:00:00
TRACK 03 AUDIO
TITLE "Tantalizer"
PERFORMER "Fluxion"
ISRC DEU671001005
INDEX 00 08:25:22
FILE "03. Fluxion - Tantalizer.wav" WAVE
INDEX 01 00:00:00
TRACK 04 AUDIO
TITLE "Inflection"
PERFORMER "Fluxion"
ISRC DEU671001006
INDEX 00 05:07:23
FILE "04. Fluxion - Inflection.wav" WAVE
INDEX 01 00:00:00
TRACK 05 AUDIO
TITLE "Wabbler"
PERFORMER "Fluxion"
ISRC DEU671001007
INDEX 00 07:56:74
FILE "05. Fluxion - Wabbler.wav" WAVE
INDEX 01 00:00:00
TRACK 06 AUDIO
TITLE "Elation"
PERFORMER "Fluxion"
ISRC DEU671001008
INDEX 00 06:29:69
FILE "06. Fluxion - Elation.wav" WAVE
INDEX 01 00:00:00
TRACK 07 AUDIO
TITLE "Fluctuations"
PERFORMER "Fluxion"
ISRC DEU671001009
INDEX 00 05:40:14
FILE "07. Fluxion - Fluctuations.wav" WAVE
INDEX 01 00:00:00
TRACK 08 AUDIO
TITLE "Inductance"
PERFORMER "Fluxion"
ISRC DEU671001010
INDEX 00 08:08:55
FILE "08. Fluxion - Inductance.wav" WAVE
INDEX 01 00:00:00
TRACK 09 AUDIO
TITLE "Perfuse"
PERFORMER "Fluxion"
ISRC DEU671001011
INDEX 00 08:22:37
FILE "09. Fluxion - Perfuse.wav" WAVE
INDEX 01 00:00:00

2012 Traces (CD)

Год выпуска: 2012
Жанр: Dub Techno/Ambient
Продолжительность: 01:12:40
Треклист:

01. Motion 1 (06:21)
02. No Man Is An Island (feat. Dennis Brown) (07:09)
03. Desert Nights (08:10)
04. Eruption (08:50)
05. Stations (08:39)
06. Motion 3 (08:32)
07. Memba (05:58)
08. Burst Mode (Edit) (02:51)
09. Butiama (07:02)
10. Migration (06:24)
11. Motion 2 (Edit) (02:44)

EAC


Exact Audio Copy V1.0 beta 3 from 29. August 2011

EAC extraction logfile from 10. February 2012, 14:40

Fluxion / Traces

Used drive : TSSTcorpCDDVDW TS-L633L Adapter: 0 ID: 2

Read mode : Secure
Utilize accurate stream : Yes
Defeat audio cache : Yes
Make use of C2 pointers : No

Read offset correction : 6
Overread into Lead-In and Lead-Out : No
Fill up missing offset samples with silence : Yes
Delete leading and trailing silent blocks : No
Null samples used in CRC calculations : Yes
Used interface : Native Win32 interface for Win NT & 2000
Gap handling : Appended to previous track

Used output format : User Defined Encoder
Selected bitrate : 768 kBit/s
Quality : High
Add ID3 tag : No
Command line compressor : W:\Programme\Exact Audio Copy\FLAC\FLAC.EXE
Additional command line options : -8 -V -T "ARTIST=%artist%" -T "TITLE=%title%" -T "ALBUM=%albumtitle%" -T "DATE=%year%" -T "TRACKNUMBER=%tracknr%" -T "GENRE=%genre%" -T "PERFORMER=%albuminterpret%" -T "COMPOSER=%composer%" %haslyrics%--tag-from-file=LYRICS="%lyricsfile%"%haslyrics% -T "ALBUMARTIST=%albumartist%" -T "DISCNUMBER=%cdnumber%" -T "TOTALDISCS=%totalcds%" -T "TOTALTRACKS=%numtracks%" -T "COMMENT=%comment%" %source% -o %dest%

TOC of the extracted CD

Track | Start | Length | Start sector | End sector
---------------------------------------------------------
1 | 0:00.00 | 6:21.32 | 0 | 28606
2 | 6:21.32 | 7:09.10 | 28607 | 60791
3 | 13:30.42 | 8:10.11 | 60792 | 97552
4 | 21:40.53 | 8:50.00 | 97553 | 137302
5 | 30:30.53 | 8:39.17 | 137303 | 176244
6 | 39:09.70 | 8:31.74 | 176245 | 214643
7 | 47:41.69 | 5:57.59 | 214644 | 241477
8 | 53:39.53 | 2:50.38 | 241478 | 254265
9 | 56:30.16 | 7:02.07 | 254266 | 285922
10 | 63:32.23 | 6:23.38 | 285923 | 314685
11 | 69:55.61 | 2:44.00 | 314686 | 326985

Track 1

Filename W:\Musik\Fluxion - Traces (FLAC)\01 - Motion 1.wav

Pre-gap length 0:00:02.00

Peak level 96.6 %
Extraction speed 1.0 X
Track quality 99.9 %
Test CRC B7B4FC7F
Copy CRC B7B4FC7F
Track not present in AccurateRip database
Copy OK

Track 2

Filename W:\Musik\Fluxion - Traces (FLAC)\02 - No Man Is An Island (feat. Dennis Brown).wav

Pre-gap length 0:00:02.00

Peak level 96.6 %
Extraction speed 1.2 X
Track quality 100.0 %
Test CRC 08C066D1
Copy CRC 08C066D1
Track not present in AccurateRip database
Copy OK

Track 3

Filename W:\Musik\Fluxion - Traces (FLAC)\03 - Desert Nights.wav

Pre-gap length 0:00:02.00

Peak level 96.6 %
Extraction speed 1.4 X
Track quality 100.0 %
Test CRC 4CFA3104
Copy CRC 4CFA3104
Track not present in AccurateRip database
Copy OK

Track 4

Filename W:\Musik\Fluxion - Traces (FLAC)\04 - Eruption.wav

Pre-gap length 0:00:02.00

Peak level 96.6 %
Extraction speed 1.5 X
Track quality 100.0 %
Test CRC 2F145ACC
Copy CRC 2F145ACC
Track not present in AccurateRip database
Copy OK

Track 5

Filename W:\Musik\Fluxion - Traces (FLAC)\05 - Statons.wav

Pre-gap length 0:00:02.00

Peak level 96.6 %
Extraction speed 1.5 X
Track quality 99.9 %
Test CRC 4662AC9C
Copy CRC 4662AC9C
Track not present in AccurateRip database
Copy OK

Track 6

Filename W:\Musik\Fluxion - Traces (FLAC)\06 - Motion 3.wav

Pre-gap length 0:00:02.00

Peak level 96.6 %
Extraction speed 1.7 X
Track quality 100.0 %
Test CRC C6A8FD4C
Copy CRC C6A8FD4C
Track not present in AccurateRip database
Copy OK

Track 7

Filename W:\Musik\Fluxion - Traces (FLAC)\07 - Memba.wav

Pre-gap length 0:00:02.00

Peak level 96.6 %
Extraction speed 1.8 X
Track quality 100.0 %
Test CRC 1E09687D
Copy CRC 1E09687D
Track not present in AccurateRip database
Copy OK

Track 8

Filename W:\Musik\Fluxion - Traces (FLAC)\08 - Burst Mode (Edit).wav

Pre-gap length 0:00:02.00

Peak level 95.9 %
Extraction speed 1.6 X
Track quality 100.0 %
Test CRC 5D10FD35
Copy CRC 5D10FD35
Track not present in AccurateRip database
Copy OK

Track 9

Filename W:\Musik\Fluxion - Traces (FLAC)\09 - Butiama.wav

Pre-gap length 0:00:02.00

Peak level 96.6 %
Extraction speed 1.9 X
Track quality 100.0 %
Test CRC 29D2519D
Copy CRC 29D2519D
Track not present in AccurateRip database
Copy OK

Track 10

Filename W:\Musik\Fluxion - Traces (FLAC)\10 - Migration.wav

Pre-gap length 0:00:02.00

Peak level 96.6 %
Extraction speed 1.9 X
Track quality 100.0 %
Test CRC 6F6B0028
Copy CRC 6F6B0028
Track not present in AccurateRip database
Copy OK

Track 11

Filename W:\Musik\Fluxion - Traces (FLAC)\11 - Motion 2 (Edit).wav

Pre-gap length 0:00:02.00

Peak level 96.6 %
Extraction speed 1.3 X
Track quality 99.9 %
Test CRC B4192929
Copy CRC B4192929
Track not present in AccurateRip database
Copy OK

None of the tracks are present in the AccurateRip database

No errors occurred

End of status report

==== Log checksum E47A303702499F9B1684BC2304560F1AC329B110D902DE533D16A8BB2EC7D338 ====

CUE


REM GENRE "Dub Techno"
REM DATE 2012
REM DISCID 8B11070B
REM COMMENT "ExactAudioCopy v1.0b3"
PERFORMER "Fluxion"
TITLE "Traces"
FILE "01 - Motion 1.wav" WAVE
TRACK 01 AUDIO
TITLE "Motion 1"
PERFORMER "Fluxion"
ISRC <c\^71101432
INDEX 01 00:00:00
TRACK 02 AUDIO
TITLE "No Man Is An Island (feat. Dennis Brown)"
PERFORMER "Fluxion"
ISRC <c\^71101440
INDEX 00 06:19:32
FILE "02 - No Man Is An Island (feat. Dennis Brown).wav" WAVE
INDEX 01 00:00:00
TRACK 03 AUDIO
TITLE "Desert Nights"
PERFORMER "Fluxion"
ISRC <c\^71101433
INDEX 00 07:07:10
FILE "03 - Desert Nights.wav" WAVE
INDEX 01 00:00:00
TRACK 04 AUDIO
TITLE "Eruption"
PERFORMER "Fluxion"
ISRC <c\^71101434
INDEX 00 08:08:11
FILE "04 - Eruption.wav" WAVE
INDEX 01 00:00:00
TRACK 05 AUDIO
TITLE "Statons"
PERFORMER "Fluxion"
ISRC <c\^71101435
INDEX 00 08:48:00
FILE "05 - Statons.wav" WAVE
INDEX 01 00:00:00
TRACK 06 AUDIO
TITLE "Motion 3"
PERFORMER "Fluxion"
ISRC <c\^71101439
INDEX 00 08:37:17
FILE "06 - Motion 3.wav" WAVE
INDEX 01 00:00:00
TRACK 07 AUDIO
TITLE "Memba"
PERFORMER "Fluxion"
ISRC <c\^71101436
INDEX 00 08:29:74
FILE "07 - Memba.wav" WAVE
INDEX 01 00:00:00
TRACK 08 AUDIO
TITLE "Burst Mode (Edit)"
PERFORMER "Fluxion"
ISRC <c\^71101437
INDEX 00 05:55:59
FILE "08 - Burst Mode (Edit).wav" WAVE
INDEX 01 00:00:00
TRACK 09 AUDIO
TITLE "Butiama"
PERFORMER "Fluxion"
ISRC <c\^71101438
INDEX 00 02:48:38
FILE "09 - Butiama.wav" WAVE
INDEX 01 00:00:00
TRACK 10 AUDIO
TITLE "Migration"
PERFORMER "Fluxion"
ISRC <c\^71101919
INDEX 00 07:00:07
FILE "10 - Migration.wav" WAVE
INDEX 01 00:00:00
TRACK 11 AUDIO
TITLE "Motion 2 (Edit)"
PERFORMER "Fluxion"
ISRC <c\^71101441
INDEX 00 06:21:38
FILE "11 - Motion 2 (Edit).wav" WAVE
INDEX 01 00:00:00

2014 Broadwalk Tales (CD)

Год выпуска: 2014
Жанр: Dub Techno/Dub
Продолжительность: 01:18:22
Треклист:

01. Broadcast (02:38)
02. Change (07:29)
03. Celestia (06:08)
04. Everyday (05:09)
05. Ascent (07:22)
06. Let Down (07:24)
07. The Steps (06:56)
08. For You (07:02)
09. Momento (04:28)
10. You Dont Know (05:41)
11. Expansion (06:58)
12. Everyday (Original Version) (07:24)
13. Every Other Day (03:43)

EAC


Exact Audio Copy V1.0 beta 3 from 29. August 2011

EAC extraction logfile from 25. April 2014, 16:09

Fluxion / Broadwalk Tales

Used drive : TSSTcorpDVDWBD TS-LB23D Adapter: 0 ID: 0

Read mode : Secure
Utilize accurate stream : Yes
Defeat audio cache : Yes
Make use of C2 pointers : No

Read offset correction : 6
Overread into Lead-In and Lead-Out : No
Fill up missing offset samples with silence : Yes
Delete leading and trailing silent blocks : No
Null samples used in CRC calculations : Yes
Used interface : Native Win32 interface for Win NT & 2000
Gap handling : Appended to previous track

Used output format : User Defined Encoder
Selected bitrate : 1024 kBit/s
Quality : High
Add ID3 tag : No
Command line compressor : D:\Programme\Flac\flac.exe
Additional command line options : -8 -V -T "ARTIST=%artist%" -T "TITLE=%title%" -T "ALBUM=%albumtitle%" -T "DATE=%year%" -T "TRACKNUMBER=%tracknr%" -T "GENRE=%genre%" -T "PERFORMER=%albuminterpret%" -T "COMPOSER=%composer%" %haslyrics%--tag-from-file=LYRICS="%lyricsfile%"%haslyrics% -T "ALBUMARTIST=%albumartist%" -T "DISCNUMBER=%cdnumber%" -T "TOTALDISCS=%totalcds%" -T "TOTALTRACKS=%numtracks%" -T "COMMENT=%comment%" %source% -o %dest%

TOC of the extracted CD

Track | Start | Length | Start sector | End sector
---------------------------------------------------------
1 | 0:00.00 | 2:37.38 | 0 | 11812
2 | 2:37.38 | 7:28.69 | 11813 | 45481
3 | 10:06.32 | 6:08.09 | 45482 | 73090
4 | 16:14.41 | 5:08.68 | 73091 | 96258
5 | 21:23.34 | 7:22.19 | 96259 | 129427
6 | 28:45.53 | 7:23.63 | 129428 | 162715
7 | 36:09.41 | 6:56.33 | 162716 | 193948
8 | 43:05.74 | 7:01.38 | 193949 | 225561
9 | 50:07.37 | 4:28.37 | 225562 | 245698
10 | 54:35.74 | 5:41.32 | 245699 | 271305
11 | 60:17.31 | 6:57.73 | 271306 | 302653
12 | 67:15.29 | 7:23.65 | 302654 | 335943
13 | 74:39.19 | 3:42.73 | 335944 | 352666

Track 1

Filename E:\MP3\EAC\Fluxion - Broadwalk Tales (FLAC)\01 - Broadcast.wav

Pre-gap length 0:00:02.00

Peak level 86.1 %
Extraction speed 1.6 X
Track quality 100.0 %
Test CRC 4A30DE7E
Copy CRC 4A30DE7E
Track not present in AccurateRip database
Copy OK

Track 2

Filename E:\MP3\EAC\Fluxion - Broadwalk Tales (FLAC)\02 - Change.wav

Pre-gap length 0:00:02.00

Peak level 86.1 %
Extraction speed 2.5 X
Track quality 100.0 %
Test CRC DB3A36FA
Copy CRC DB3A36FA
Track not present in AccurateRip database
Copy OK

Track 3

Filename E:\MP3\EAC\Fluxion - Broadwalk Tales (FLAC)\03 - Celestia.wav

Pre-gap length 0:00:01.00

Peak level 96.6 %
Extraction speed 1.8 X
Track quality 100.0 %
Test CRC 0BB31F3F
Copy CRC 0BB31F3F
Track not present in AccurateRip database
Copy OK

Track 4

Filename E:\MP3\EAC\Fluxion - Broadwalk Tales (FLAC)\04 - Everyday.wav

Pre-gap length 0:00:01.00

Peak level 86.1 %
Extraction speed 1.8 X
Track quality 100.0 %
Test CRC 164ACA3A
Copy CRC 164ACA3A
Track not present in AccurateRip database
Copy OK

Track 5

Filename E:\MP3\EAC\Fluxion - Broadwalk Tales (FLAC)\05 - Ascent.wav

Pre-gap length 0:00:02.00

Peak level 96.6 %
Extraction speed 3.1 X
Track quality 100.0 %
Test CRC B5292B78
Copy CRC B5292B78
Track not present in AccurateRip database
Copy OK

Track 6

Filename E:\MP3\EAC\Fluxion - Broadwalk Tales (FLAC)\06 - Let Down.wav

Pre-gap length 0:00:01.00

Peak level 96.6 %
Extraction speed 2.3 X
Track quality 100.0 %
Test CRC DD5D7234
Copy CRC DD5D7234
Track not present in AccurateRip database
Copy OK

Track 7

Filename E:\MP3\EAC\Fluxion - Broadwalk Tales (FLAC)\07 - The Steps.wav

Pre-gap length 0:00:02.00

Peak level 86.1 %
Extraction speed 2.3 X
Track quality 100.0 %
Test CRC 6D556934
Copy CRC 6D556934
Track not present in AccurateRip database
Copy OK

Track 8

Filename E:\MP3\EAC\Fluxion - Broadwalk Tales (FLAC)\08 - For You.wav

Pre-gap length 0:00:01.00

Peak level 96.6 %
Extraction speed 2.5 X
Track quality 100.0 %
Test CRC 67619DB6
Copy CRC 67619DB6
Track not present in AccurateRip database
Copy OK

Track 9

Filename E:\MP3\EAC\Fluxion - Broadwalk Tales (FLAC)\09 - Momento.wav

Pre-gap length 0:00:02.00

Peak level 86.1 %
Extraction speed 3.9 X
Track quality 100.0 %
Test CRC C713F260
Copy CRC C713F260
Track not present in AccurateRip database
Copy OK

Track 10

Filename E:\MP3\EAC\Fluxion - Broadwalk Tales (FLAC)\10 - You Dont Know.wav

Pre-gap length 0:00:02.00

Peak level 96.6 %
Extraction speed 2.8 X
Track quality 100.0 %
Test CRC 4B584208
Copy CRC 4B584208
Track not present in AccurateRip database
Copy OK

Track 11

Filename E:\MP3\EAC\Fluxion - Broadwalk Tales (FLAC)\11 - Expansion.wav

Pre-gap length 0:00:02.00

Peak level 60.9 %
Extraction speed 2.5 X
Track quality 99.9 %
Test CRC B0201273
Copy CRC B0201273
Track not present in AccurateRip database
Copy OK

Track 12

Filename E:\MP3\EAC\Fluxion - Broadwalk Tales (FLAC)\12 - Everyday (Original version).wav

Pre-gap length 0:00:02.00

Peak level 96.6 %
Extraction speed 3.8 X
Track quality 99.9 %
Test CRC EE2BEBB0
Copy CRC EE2BEBB0
Track not present in AccurateRip database
Copy OK

Track 13

Filename E:\MP3\EAC\Fluxion - Broadwalk Tales (FLAC)\13 - Every Other Day.wav

Pre-gap length 0:00:02.00

Peak level 96.6 %
Extraction speed 3.6 X
Track quality 100.0 %
Test CRC 183D56A7
Copy CRC 183D56A7
Track not present in AccurateRip database
Copy OK

None of the tracks are present in the AccurateRip database

No errors occurred

End of status report

---- CUETools DB Plugin V2.1.3

[CTDB TOCID: eoLTc75ThVt75VA2Ph0FE6mNXeA-] disk not present in database, Submit result: eoLTc75ThVt75VA2Ph0FE6mNXeA- has been uploaded

==== Log checksum D8477D02F0496BC133645B9FA57307B47ECF4EDB7656E47CC74683FD6B9FF6B0 ====

CUE


REM GENRE "Dub Techno"
REM DATE 2014
REM DISCID C8125E0D
REM COMMENT "ExactAudioCopy v1.0b3"
PERFORMER "Fluxion"
TITLE "Broadwalk Tales"
FILE "01 - Broadcast.wav" WAVE
TRACK 01 AUDIO
TITLE "Broadcast"
PERFORMER "Fluxion"
ISRC DEU671401081
INDEX 01 00:00:00
TRACK 02 AUDIO
TITLE "Change"
PERFORMER "Fluxion"
ISRC DEU671401082
INDEX 00 02:35:38
FILE "02 - Change.wav" WAVE
INDEX 01 00:00:00
TRACK 03 AUDIO
TITLE "Celestia"
PERFORMER "Fluxion"
ISRC DEU671401083
INDEX 00 07:27:69
FILE "03 - Celestia.wav" WAVE
INDEX 01 00:00:00
TRACK 04 AUDIO
TITLE "Everyday"
PERFORMER "Fluxion"
ISRC DEU671401084
INDEX 00 06:07:09
FILE "04 - Everyday.wav" WAVE
INDEX 01 00:00:00
TRACK 05 AUDIO
TITLE "Ascent"
PERFORMER "Fluxion"
ISRC DEU671401085
INDEX 00 05:06:68
FILE "05 - Ascent.wav" WAVE
INDEX 01 00:00:00
TRACK 06 AUDIO
TITLE "Let Down"
PERFORMER "Fluxion"
ISRC DEU671401086
INDEX 00 07:21:19
FILE "06 - Let Down.wav" WAVE
INDEX 01 00:00:00
TRACK 07 AUDIO
TITLE "The Steps"
PERFORMER "Fluxion"
ISRC DEU671401087
INDEX 00 07:21:63
FILE "07 - The Steps.wav" WAVE
INDEX 01 00:00:00
TRACK 08 AUDIO
TITLE "For You"
PERFORMER "Fluxion"
ISRC DEU671401088
INDEX 00 06:55:33
FILE "08 - For You.wav" WAVE
INDEX 01 00:00:00
TRACK 09 AUDIO
TITLE "Momento"
PERFORMER "Fluxion"
ISRC DEU671401089
INDEX 00 06:59:38
FILE "09 - Momento.wav" WAVE
INDEX 01 00:00:00
TRACK 10 AUDIO
TITLE "You Dont Know"
PERFORMER "Fluxion"
ISRC DEU671401090
INDEX 00 04:26:37
FILE "10 - You Dont Know.wav" WAVE
INDEX 01 00:00:00
TRACK 11 AUDIO
TITLE "Expansion"
PERFORMER "Fluxion"
ISRC DEU671401091
INDEX 00 05:39:32
FILE "11 - Expansion.wav" WAVE
INDEX 01 00:00:00
TRACK 12 AUDIO
TITLE "Everyday (Original version)"
PERFORMER "Fluxion"
ISRC DEU671401094
INDEX 00 06:55:73
FILE "12 - Everyday (Original version).wav" WAVE
INDEX 01 00:00:00
TRACK 13 AUDIO
TITLE "Every Other Day"
PERFORMER "Fluxion"
ISRC DEU671401095
INDEX 00 07:21:65
FILE "13 - Every Other Day.wav" WAVE
INDEX 01 00:00:00

2016 Vibrant Forms III (CD)

Год выпуска: 2016
Жанр: Dub Techno
Продолжительность: 01:15:03
Треклист:

01. Regional Shift (09:34)
02. Uncontained (09:07)
03. Hordes Descent (10:47)
04. Safe Harbour (10:02)
05. Tortile (07:52)
06. Gradual Approach (09:44)
07. Autonomous (06:49)
08. Variant (CD Version) (02:02)
09. Contact (09:06)

EAC


Exact Audio Copy V1.3 from 2. September 2016

EAC extraction logfile from 18. November 2016, 12:33

Fluxion / Vibrant Forms III

Used drive : BENQ CDRW 5232X Adapter: 1 ID: 0

Read mode : Secure
Utilize accurate stream : Yes
Defeat audio cache : Yes
Make use of C2 pointers : No

Read offset correction : 738
Overread into Lead-In and Lead-Out : No
Fill up missing offset samples with silence : Yes
Delete leading and trailing silent blocks : No
Null samples used in CRC calculations : Yes
Used interface : Native Win32 interface for Win NT & 2000
Gap handling : Appended to previous track

Used output format : User Defined Encoder
Selected bitrate : 1024 kBit/s
Quality : High
Add ID3 tag : No
Command line compressor : C:\Program Files (x86)\Exact Audio Copy\Flac\flac.exe
Additional command line options : -8 -e -V -T "ARTIST=%artist%" -T "TITLE=%title%" -T "ALBUM=%albumtitle%" -T "DATE=%year%" -T "TRACKNUMBER=%tracknr%" -T "GENRE=%genre%" -T "PERFORMER=%albuminterpret%" -T "COMPOSER=%composer%" %haslyrics%--tag-from-file=LYRICS="%lyricsfile%"%haslyrics% -T "ALBUMARTIST=%albumartist%" -T "DISCNUMBER=%cdnumber%" -T "TOTALDISCS=%totalcds%" -T "TOTALTRACKS=%numtracks%" -T "COMMENT=%comment%" %source% -o %dest%

TOC of the extracted CD

Track | Start | Length | Start sector | End sector
---------------------------------------------------------
1 | 0:00.00 | 9:33.51 | 0 | 43025
2 | 9:33.51 | 9:06.56 | 43026 | 84031
3 | 18:40.32 | 10:46.60 | 84032 | 132541
4 | 29:27.17 | 10:02.01 | 132542 | 177692
5 | 39:29.18 | 7:51.42 | 177693 | 213059
6 | 47:20.60 | 9:44.14 | 213060 | 256873
7 | 57:04.74 | 6:49.28 | 256874 | 287576
8 | 63:54.27 | 2:01.60 | 287577 | 296711
9 | 65:56.12 | 9:05.53 | 296712 | 337639

Track 1

Filename E:\MP3\EAC\Fluxion - Vibrant Forms III (CD FLAC)\01 - Regional Shift.wav

Pre-gap length 0:00:02.00

Peak level 93.5 %
Extraction speed 3.3 X
Track quality 99.9 %
Test CRC 2DEE2BEF
Copy CRC 2DEE2BEF
Track not present in AccurateRip database
Copy OK

Track 2

Filename E:\MP3\EAC\Fluxion - Vibrant Forms III (CD FLAC)\02 - Uncontained.wav

Pre-gap length 0:00:00.40

Peak level 93.5 %
Extraction speed 3.3 X
Track quality 100.0 %
Test CRC D26C5E25
Copy CRC D26C5E25
Track not present in AccurateRip database
Copy OK

Track 3

Filename E:\MP3\EAC\Fluxion - Vibrant Forms III (CD FLAC)\03 - Hordes Descent.wav

Pre-gap length 0:00:01.74

Peak level 88.8 %
Extraction speed 3.3 X
Track quality 100.0 %
Test CRC 8251235D
Copy CRC 8251235D
Track not present in AccurateRip database
Copy OK

Track 4

Filename E:\MP3\EAC\Fluxion - Vibrant Forms III (CD FLAC)\04 - Safe Harbour.wav

Pre-gap length 0:00:02.19

Peak level 93.5 %
Extraction speed 3.4 X
Track quality 100.0 %
Test CRC BA43A4F4
Copy CRC BA43A4F4
Track not present in AccurateRip database
Copy OK

Track 5

Filename E:\MP3\EAC\Fluxion - Vibrant Forms III (CD FLAC)\05 - Tortile.wav

Pre-gap length 0:00:00.47

Peak level 93.5 %
Extraction speed 3.4 X
Track quality 100.0 %
Test CRC E71B865C
Copy CRC E71B865C
Track not present in AccurateRip database
Copy OK

Track 6

Filename E:\MP3\EAC\Fluxion - Vibrant Forms III (CD FLAC)\06 - Gradual Approach.wav

Pre-gap length 0:00:00.41

Peak level 93.5 %
Extraction speed 3.4 X
Track quality 100.0 %
Test CRC 82DDA124
Copy CRC 82DDA124
Track not present in AccurateRip database
Copy OK

Track 7

Filename E:\MP3\EAC\Fluxion - Vibrant Forms III (CD FLAC)\07 - Autonomous.wav

Pre-gap length 0:00:00.71

Peak level 93.5 %
Extraction speed 3.3 X
Track quality 99.9 %
Test CRC 969027B0
Copy CRC 969027B0
Track not present in AccurateRip database
Copy OK

Track 8

Filename E:\MP3\EAC\Fluxion - Vibrant Forms III (CD FLAC)\08 - Variant (CD Version).wav

Pre-gap length 0:00:01.74

Peak level 93.5 %
Extraction speed 2.8 X
Track quality 99.9 %
Test CRC 3F8B7A33
Copy CRC 3F8B7A33
Track not present in AccurateRip database
Copy OK

Track 9

Filename E:\MP3\EAC\Fluxion - Vibrant Forms III (CD FLAC)\09 - Contact.wav

Pre-gap length 0:00:00.57

Peak level 82.0 %
Extraction speed 3.9 X
Track quality 100.0 %
Test CRC A879C5B1
Copy CRC A879C5B1
Track not present in AccurateRip database
Copy OK

None of the tracks are present in the AccurateRip database

No errors occurred

End of status report

---- CUETools DB Plugin V2.1.6

[CTDB TOCID: dRi36P5ehdisFdXAEM77aQmhUoE-] disk not present in database
Submit result: dRi36P5ehdisFdXAEM77aQmhUoE- has been uploaded

==== Log checksum 85F8CF37A34ADC823F6C47AC3D38EFC24205F622BB6D3488C60082C783A7DA32 ====

CUE


REM GENRE "Dub Techno"
REM DATE 2016
REM DISCID 89119509
REM COMMENT "ExactAudioCopy v1.3"
PERFORMER "Fluxion"
TITLE "Vibrant Forms III"
REM COMPOSER ""
FILE "01 - Regional Shift.wav" WAVE
TRACK 01 AUDIO
TITLE "Regional Shift"
PERFORMER "Fluxion"
REM COMPOSER ""
INDEX 01 00:00:00
TRACK 02 AUDIO
TITLE "Uncontained"
PERFORMER "Fluxion"
REM COMPOSER ""
INDEX 00 09:33:11
FILE "02 - Uncontained.wav" WAVE
INDEX 01 00:00:00
TRACK 03 AUDIO
TITLE "Hordes Descent"
PERFORMER "Fluxion"
REM COMPOSER ""
INDEX 00 09:04:57
FILE "03 - Hordes Descent.wav" WAVE
INDEX 01 00:00:00
TRACK 04 AUDIO
TITLE "Safe Harbour"
PERFORMER "Fluxion"
REM COMPOSER ""
INDEX 00 10:44:41
FILE "04 - Safe Harbour.wav" WAVE
INDEX 01 00:00:00
TRACK 05 AUDIO
TITLE "Tortile"
PERFORMER "Fluxion"
REM COMPOSER ""
INDEX 00 10:01:29
FILE "05 - Tortile.wav" WAVE
INDEX 01 00:00:00
TRACK 06 AUDIO
TITLE "Gradual Approach"
PERFORMER "Fluxion"
REM COMPOSER ""
INDEX 00 07:51:01
FILE "06 - Gradual Approach.wav" WAVE
INDEX 01 00:00:00
TRACK 07 AUDIO
TITLE "Autonomous"
PERFORMER "Fluxion"
REM COMPOSER ""
INDEX 00 09:43:18
FILE "07 - Autonomous.wav" WAVE
INDEX 01 00:00:00
TRACK 08 AUDIO
TITLE "Variant (CD Version)"
PERFORMER "Fluxion"
REM COMPOSER ""
INDEX 00 06:47:29
FILE "08 - Variant (CD Version).wav" WAVE
INDEX 01 00:00:00
TRACK 09 AUDIO
TITLE "Contact"
PERFORMER "Fluxion"
REM COMPOSER ""
INDEX 00 02:01:03
FILE "09 - Contact.wav" WAVE
INDEX 01 00:00:00

2018 Ripple Effect (WEB)

Год выпуска: 2018
Жанр: Dub Techno/Ambient/Abstract
Продолжительность: 00:54:42
Треклист:

01. Train Incident (05:27)
02. The Meeting (09:12)
03. Momentum (04:23)
04. The Idea (03:19)
05. Another Side (07:27)
06. Tipping Point (11:09)
07. Fortitude (04:47)
08. Valley (03:50)
09. Moving On (05:08)

Лог проверки качества


-----------------------

DON'T MODIFY THIS FILE

-----------------------

PERFORMER: auCDtect Task Manager, ver. 1.6.0 RC1 build 1.6.0.1
Copyright (c) 2008-2010 y-soft. All rights reserved
http://y-soft.org

ANALYZER: auCDtect: CD records authenticity detector, version 0.8.2
Copyright (c) 2004 Oleg Berngardt. All rights reserved.
Copyright (c) 2004 Alexander Djourik. All rights reserved.

FILE: 09. Moving On.flac
Size: 20615698 Hash: E51B321D5FFCA8E645DCAE1843843799 Accuracy: -m0
Conclusion: CDDA 100%
Signature: 1EDE862EA155001F46F13DAC573AB9F97B3CA980
FILE: 08. Valley.flac
Size: 18551203 Hash: 0C028F7E54CAE4219652589C480647F6 Accuracy: -m0
Conclusion: CDDA 87%
Signature: 0DFA3E1F9F52EF712CEA13E72A09555DABBE1D94
FILE: 07. Fortitude.flac
Size: 29026130 Hash: D22929ECF0F942CE12DA478BFD111719 Accuracy: -m0
Conclusion: CDDA 100%
Signature: 74124AC6A750912131146353687B23BAA923213C
FILE: 06. Tipping Point.flac
Size: 62557280 Hash: 7787DE8C50C9F99BE24E438149BC1338 Accuracy: -m0
Conclusion: CDDA 100%
Signature: CBF7473BE3D75029314118DF0A6C069E461527B2
FILE: 05. Another Side.flac
Size: 39691574 Hash: E96985FB941EF9379354CDB84193999B Accuracy: -m0
Conclusion: CDDA 100%
Signature: 942BB4979D7768AE294153FBEAD71DD588B861E7
FILE: 04. The Idea.flac
Size: 20169004 Hash: 1304F2478D70CC3E867DBDEF90B8CEBF Accuracy: -m0
Conclusion: CDDA 100%
Signature: CAE74822DE4C59F5F764654589104B4D5C2F5121
FILE: 03. Momentum.flac
Size: 21994261 Hash: C641FFA6F152CB25DFE237DD9BDD62AD Accuracy: -m0
Conclusion: CDDA 99%
Signature: 7A07A22E12F959FCCE720AD1D4D20797B1D28DD7
FILE: 02. The Meeting.flac
Size: 53550520 Hash: 8DBF4BCE230E8BE60A7C8FB0608F93B2 Accuracy: -m0
Conclusion: CDDA 99%
Signature: E87D3A0BF02CCC57C2AD048FFF3959642B95C6B4
FILE: 01. Train Incident.flac
Size: 30136420 Hash: 58E4E9943AEA5A170B57912BD641AFCD Accuracy: -m0
Conclusion: CDDA 100%
Signature: 17F10554A33FAD11275BE32D33C994B1BBA18550

Singles & EPs

2000 Bipolar Defect (Vinyl)

Год выпуска: 2000
Жанр: Dub Techno/Minimal
Продолжительность: 01:00:54
Треклист:

01. Bipolar Defect (08:58)
02. Multidirectional I (09:03)
03. Bilateral Motion (04:12)
04. Friction Pulse (05:17)
05. Omnibus (03:26)
06. Stream I (05:33)
07. Stream ll (04:29)
08. lnterlock (04:38)
09. Aviation (06:07)
10. Multidirectional II (09:11)

Лог проверки качества


-----------------------

DON'T MODIFY THIS FILE

-----------------------

PERFORMER: auCDtect Task Manager, ver. 1.6.0 RC1 build 1.6.0.1
Copyright (c) 2008-2010 y-soft. All rights reserved
http://y-soft.org

ANALYZER: auCDtect: CD records authenticity detector, version 0.8.2
Copyright (c) 2004 Oleg Berngardt. All rights reserved.
Copyright (c) 2004 Alexander Djourik. All rights reserved.

FILE: 10. Multidirectional II.flac
Size: 55507905 Hash: 681D68427F7C4F23EE471BB2929DEB2B Accuracy: -m0
Conclusion: CDDA 100%
Signature: 937896E484F5E6AD163682328600E3859D887D75
FILE: 09. Aviation.flac
Size: 34304123 Hash: 20E0851074FBEF5F7153328B088868BF Accuracy: -m0
Conclusion: CDDA 100%
Signature: DC3ECBD266D9EC087AFEEA49F08986AC6C2D6FC8
FILE: 08. lnterlock.flac
Size: 25386651 Hash: E676BD9AB037CC4A52551D1F05FAA449 Accuracy: -m0
Conclusion: CDDA 100%
Signature: 5D62F8E9F91EE46860BCA27E4E1D93B0BFA8E077
FILE: 07. Stream ll.flac
Size: 25572861 Hash: 39BCD48DEFC8A955E34115EE2C81620B Accuracy: -m0
Conclusion: CDDA 100%
Signature: DFBAEFA29FFA851B8D7F81CB2C47EB500C398D2B
FILE: 06. Stream I.flac
Size: 33650846 Hash: 2F3E96FAA985530863DBA9E74E6ED959 Accuracy: -m0
Conclusion: CDDA 100%
Signature: 762AC7CB973382502712DCFAF837C0CBD1883A0B
FILE: 05. Omnibus.flac
Size: 18367940 Hash: DAD1C7EAA992E8FB09409F218F311160 Accuracy: -m0
Conclusion: CDDA 99%
Signature: 383C352779F7CCEDB0013030E2EB984EBD7DEFF2
FILE: 04. Friction Pulse.flac
Size: 30463900 Hash: E82AE95B865DA253A8A5BCB3855E407A Accuracy: -m0
Conclusion: CDDA 100%
Signature: 85BFC63112D275278C43062A1CB00D887A7032CB
FILE: 03. Bilateral Motion.flac
Size: 22596971 Hash: 4C1135608E8D20006B3E35C1544C867F Accuracy: -m0
Conclusion: CDDA 100%
Signature: C6D97ED1637E812E07B8B1DF01AF8B204FE4821F
FILE: 02. Multidirectional I.flac
Size: 44407967 Hash: D3A2029F0DB1C82ECAC39EDFADD25ED0 Accuracy: -m0
Conclusion: CDDA 99%
Signature: A886175B88BD1D54EE6F0A82D6ED2ED1062D8E61
FILE: 01. Bipolar Defect.flac
Size: 42150059 Hash: B8F9A93472C60437B985C3DF61BD3F32 Accuracy: -m0
Conclusion: CDDA 100%
Signature: 8E9CD10B4EDE7479BF468ACBFBF2801AB6C6E9DE

2010 Waves EP (WEB)

Год выпуска: 2010
Жанр: Dub Techno
Продолжительность: 00:27:26
Треклист:

01. Waves (08:25)
02. Horizons (06:11)
03. Waves (Solar Constant Mix) (06:43)
04. Inflection (Beyond Nyquist Mix) (06:07)

Лог проверки качества


-----------------------

DON'T MODIFY THIS FILE

-----------------------

PERFORMER: auCDtect Task Manager, ver. 1.6.0 RC1 build 1.6.0.1
Copyright (c) 2008-2010 y-soft. All rights reserved
http://y-soft.org

ANALYZER: auCDtect: CD records authenticity detector, version 0.8.2
Copyright (c) 2004 Oleg Berngardt. All rights reserved.
Copyright (c) 2004 Alexander Djourik. All rights reserved.

FILE: 04. Inflection (Beyond Nyquist Mix).flac
Size: 34775546 Hash: 3CFF8D7C5546AEC15BBBACFD6ADFF9F9 Accuracy: -m0
Conclusion: CDDA 100%
Signature: DDB78B523B0DC8B57B0C5D42832AD527DFE5216E
FILE: 03. Waves (Solar Constant Mix).flac
Size: 42347900 Hash: A7DF1C56641D5089689A627760F5542C Accuracy: -m0
Conclusion: CDDA 43%
Signature: 73251CCFE0C0D7FD2BF69CB8F44EBE956827B801
FILE: 02. Horizons.flac
Size: 29635116 Hash: 54D8F8467B1625010326B2AEF39DE5B0 Accuracy: -m0
Conclusion: CDDA 100%
Signature: E3ED923288C980D31A58E0AAA23FE2276910E56B
FILE: 01. Waves.flac
Size: 42529038 Hash: 8B827F383293222FE592F35800D9D070 Accuracy: -m0
Conclusion: CDDA 100%
Signature: CB7F37A702BD1B12AA9EE9B28AD17D81C1861AA5

2014 Broadwalk Tales EP (WEB)

Год выпуска: 2014
Жанр: Dub Techno/Dub
Продолжительность: 00:14:22
Треклист:

01. Everyday (07:24)
02. Expansion (06:58)

Лог проверки качества


-----------------------

DON'T MODIFY THIS FILE

-----------------------

PERFORMER: auCDtect Task Manager, ver. 1.6.0 RC1 build 1.6.0.1
Copyright (c) 2008-2010 y-soft. All rights reserved
http://y-soft.org

ANALYZER: auCDtect: CD records authenticity detector, version 0.8.2
Copyright (c) 2004 Oleg Berngardt. All rights reserved.
Copyright (c) 2004 Alexander Djourik. All rights reserved.

FILE: 02. Expansion.flac
Size: 34740345 Hash: AC05839B3E2C665CEECC9BF386236D31 Accuracy: -m0
Conclusion: CDDA 100%
Signature: 8F706E6D1D2DFBB60185A00F04C0324B0F6D1313
FILE: 01. Everyday.flac
Size: 46744054 Hash: 166124FCCF1623CC7133C72E58605524 Accuracy: -m0
Conclusion: CDDA 100%
Signature: F4DF07E495679E3EDF92A031BA212D3D37C517A9

2014 Broadwalk Tales Remix EP (WEB)

Год выпуска: 2014
Жанр: Dub Techno
Продолжительность: 00:24:46
Треклист:

01. You Don't Know (Joey Anderson Remix) (07:31)
02. For You (Deepchord Reconstruction #1) (08:16)
03. For You (Deepchord Reconstruction #2) (08:59)

Лог проверки качества


-----------------------

DON'T MODIFY THIS FILE

-----------------------

PERFORMER: auCDtect Task Manager, ver. 1.5.1RC6 build 1.5.1.7
Copyright (c) 2008-2010 y-soft. All rights reserved
http://y-soft.org

ANALYZER: auCDtect: CD records authenticity detector, version 0.8.2
Copyright (c) 2004 Oleg Berngardt. All rights reserved.
Copyright (c) 2004 Alexander Djourik. All rights reserved.

FILE: 03. For You (Deepchord Reconstruction #2).flac
Size: 56362143 Hash: 56C5AE7624E0B8ED9AF5AD50AF4117C4 Accuracy: -m0
Conclusion: CDDA 100%
Signature: 3DAC626D0F363B9E17F50BA3F31FC2524C671FB7
FILE: 02. For You (Deepchord Reconstruction #1).flac
Size: 51800250 Hash: B3FD3EFBB122DE84CDE480AE77955B39 Accuracy: -m0
Conclusion: CDDA 100%
Signature: F89754C1D2CC9E47ADE37702FE6F250A2C99C9F2
FILE: 01. You Don't Know (Joey Anderson Remix).flac
Size: 43330448 Hash: 69F4B7D2821AA3987927FCAEEC459B0A Accuracy: -m0
Conclusion: CDDA 100%
Signature: FC438508D1B4208788D329196C1D37219099A314

2016 Outerside (Vinyl)

Год выпуска: 2016
Жанр: Techno/Dub Techno
Продолжительность: 00:24:31
Треклист:

01. Outerside (07:24)
02. Circa (04:09)
03. Enchancement (09:01)
04. Equilibrium (03:57)

Лог проверки качества


-----------------------

DON'T MODIFY THIS FILE

-----------------------

PERFORMER: auCDtect Task Manager, ver. 1.6.0 RC1 build 1.6.0.1
Copyright (c) 2008-2010 y-soft. All rights reserved
http://y-soft.org

ANALYZER: auCDtect: CD records authenticity detector, version 0.8.2
Copyright (c) 2004 Oleg Berngardt. All rights reserved.
Copyright (c) 2004 Alexander Djourik. All rights reserved.

FILE: 04. Equilibrium.flac
Size: 22810794 Hash: F8B54D4F7E0C7479FE9A134F22106D51 Accuracy: -m0
Conclusion: CDDA 100%
Signature: A5732929A8957C084591C81E23624641E8CAE1BF
FILE: 03. Enchancement.flac
Size: 61207539 Hash: 849E709D9DC53535CB5DA5169AA60CEB Accuracy: -m0
Conclusion: CDDA 100%
Signature: 28B6E8C9FCCEB9B21EC9AD677A5D007C71B28FDD
FILE: 02. Circa.flac
Size: 25208110 Hash: 76686B45BEDC9AFE8608ECDB808921E7 Accuracy: -m0
Conclusion: CDDA 100%
Signature: AC74BF05ECADAE9814C560640A52C195B40B3CF1
FILE: 01. Outerside.flac
Size: 42917946 Hash: A98FA903BAD6EDD475F7540F3BA41DDC Accuracy: -m0
Conclusion: CDDA 100%
Signature: D5806CD73E9808592A6D2699A240E7B4F818A090

2017 Accumulate (DeepChord & Fluxion) (WEB)

Год выпуска: 2017
Жанр: Dub Techno
Продолжительность: 00:24:43
Треклист:

01. Accumulate Pt.1 (13:24)
02. Accumulate Pt.2 (11:19)

Лог проверки качества


-----------------------

DON'T MODIFY THIS FILE

-----------------------

PERFORMER: auCDtect Task Manager, ver. 1.6.0 RC1 build 1.6.0.1
Copyright (c) 2008-2010 y-soft. All rights reserved
http://y-soft.org

ANALYZER: auCDtect: CD records authenticity detector, version 0.8.2
Copyright (c) 2004 Oleg Berngardt. All rights reserved.
Copyright (c) 2004 Alexander Djourik. All rights reserved.

FILE: 02. Accumulate Pt.2.flac
Size: 67992698 Hash: A8296B519A3C8786FA5282BCD403249A Accuracy: -m0
Conclusion: MPEG 95%
Signature: 51CA03D6E34505B04C2D4983A7C9B5995E42898F
FILE: 01. Accumulate Pt.1.flac
Size: 83705456 Hash: 25DB9D83A6DE52B9DE4A2FFD39A0A47F Accuracy: -m0
Conclusion: CDDA 99%
Signature: CF894405C4189C094663E398EF0FB1D1BBE1D5BC

2017 Multidirectional I+II (DeepChord Rebuilds) (Vinyl)

Год выпуска: 2017
Жанр: Techno/Dub Techno
Продолжительность: 00:17:27
Треклист:

01. Multidirectional I (DeepChord Rebuild) (08:37)
02. Multidirectional II (DeepChord Rebuild) (08:50)

Лог проверки качества


-----------------------

DON'T MODIFY THIS FILE

-----------------------

PERFORMER: auCDtect Task Manager, ver. 1.6.0 RC1 build 1.6.0.1
Copyright (c) 2008-2010 y-soft. All rights reserved
http://y-soft.org

ANALYZER: auCDtect: CD records authenticity detector, version 0.8.2
Copyright (c) 2004 Oleg Berngardt. All rights reserved.
Copyright (c) 2004 Alexander Djourik. All rights reserved.

FILE: 02. Multidirectional II (DeepChord Rebuild).flac
Size: 47657861 Hash: 6D9C98420EC1CA8A9993A465F587591B Accuracy: -m0
Conclusion: CDDA 100%
Signature: DA253123C4459EDC7CB3588557BF6842B704C7A1
FILE: 01. Multidirectional I (DeepChord Rebuild).flac
Size: 49585983 Hash: FC2D78F21C7FA4A67B5916B3427781DD Accuracy: -m0
Conclusion: CDDA 100%
Signature: 9CA57692B2AA6FCCD52B10515EDB842B9F9A597E

2018 Bona Fide EP (DeepChord & Fluxion) (WEB)

Год выпуска: 2018
Жанр: Dub Techno
Продолжительность: 00:24:16
Треклист:

01. Bona Fide Pt.1 (12:37)
02. Bona Fide Pt.2 (11:39)

Лог проверки качества


-----------------------

DON'T MODIFY THIS FILE

-----------------------

PERFORMER: auCDtect Task Manager, ver. 1.6.0 RC1 build 1.6.0.1
Copyright (c) 2008-2010 y-soft. All rights reserved
http://y-soft.org

ANALYZER: auCDtect: CD records authenticity detector, version 0.8.2
Copyright (c) 2004 Oleg Berngardt. All rights reserved.
Copyright (c) 2004 Alexander Djourik. All rights reserved.

FILE: 02. Bona Fide Pt.2.flac
Size: 61518611 Hash: D82948020290A61A46C044C9B49FACED Accuracy: -m0
Conclusion: CDDA 100%
Signature: 390B886D28121B1644FB0CDB61EC5026D13218D8
FILE: 01. Bona Fide Pt.1.flac
Size: 72431866 Hash: B91EBC5F21C2EF1D3D75736B11D1C269 Accuracy: -m0
Conclusion: CDDA 99%
Signature: 252759595DC1DB30024EFD8556D08EB8B6D8710D

2018 Strands (WEB)

Год выпуска: 2018
Жанр: Dub Techno/Leftfield
Продолжительность: 00:29:30
Треклист:

01. Jaxtaposed (08:55)
02. Versal (08:03)
03. Poise (07:00)
04. Bound (05:32)

Лог проверки качества


-----------------------

DON'T MODIFY THIS FILE

-----------------------

PERFORMER: auCDtect Task Manager, ver. 1.6.0 RC1 build 1.6.0.1
Copyright (c) 2008-2010 y-soft. All rights reserved
http://y-soft.org

ANALYZER: auCDtect: CD records authenticity detector, version 0.8.2
Copyright (c) 2004 Oleg Berngardt. All rights reserved.
Copyright (c) 2004 Alexander Djourik. All rights reserved.

FILE: 04. Bound.flac
Size: 38145369 Hash: 9820EA7C2F38FC6251B1E4D704EA2302 Accuracy: -m0
Conclusion: CDDA 100%
Signature: 7D4141FBBF34171276B9AD94A25C98D0441C5050
FILE: 03. Poise.flac
Size: 44560000 Hash: 9FE0D672D18307877073BCA44C03E01A Accuracy: -m0
Conclusion: CDDA 100%
Signature: DFCC173903CAE06C619C395214EBB79231503C6C
FILE: 02. Versal.flac
Size: 37915451 Hash: 379EF5878C56E297410853341C078E43 Accuracy: -m0
Conclusion: CDDA 99%
Signature: 86A4CB534372BFA5AB2DD9E55A565BA728E738FE
FILE: 01. Jaxtaposed.flac
Size: 59677900 Hash: 0B6661C715B0F6EB8C43C079549497E8 Accuracy: -m0
Conclusion: CDDA 87%
Signature: AFF812CFEBCD69DCA662F77797D832A460991CB8

2018 Upsides & Sideways EP (WEB)

Год выпуска: 2018
Жанр: Dub Techno/Tech House
Продолжительность: 00:19:07
Треклист:

01. En Route (07:51)
02. The Place (07:26)
03. Flick (03:50)

Лог проверки качества


-----------------------

DON'T MODIFY THIS FILE

-----------------------

PERFORMER: auCDtect Task Manager, ver. 1.6.0 RC1 build 1.6.0.1
Copyright (c) 2008-2010 y-soft. All rights reserved
http://y-soft.org

ANALYZER: auCDtect: CD records authenticity detector, version 0.8.2
Copyright (c) 2004 Oleg Berngardt. All rights reserved.
Copyright (c) 2004 Alexander Djourik. All rights reserved.

FILE: 03. Flick.flac
Size: 20015070 Hash: 4D0CDA5C6C8784E89D7F903EA1174AEE Accuracy: -m0
Conclusion: CDDA 100%
Signature: A1DF57FED2B39FE1E056F4BFB7E0D619C21A881D
FILE: 02. The Place.flac
Size: 43366194 Hash: A17C62D8CE1D344BCC2CEE83B94BB3AE Accuracy: -m0
Conclusion: CDDA 100%
Signature: 3682116B5F134ABCCAF060BC9E69F5B523655A1B
FILE: 01. En Route.flac
Size: 46911032 Hash: 9D3650E804352B77F9AA48A5C8BDED9F Accuracy: -m0
Conclusion: CDDA 100%
Signature: 41C0D4679781EBDF99E0924D0EAEC2A87DED2624

Compilations

1999 Vibrant Forms (CD)

Год выпуска: 1999
Жанр: Dub Techno/Minimal/Ambient
Продолжительность: 01:09:04
Треклист:

01. Lark (08:54)
02. Hiatus (07:15)
03. Lapses (02:03)
04. Largo (08:25)
05. Atlos (10:33)
06. Cyclops Machine (00:47)
07. Fovea Centralis (09:30)
08. Pendoulous (06:02)
09. Influx (06:50)
10. Opaque (08:45)

EAC


Exact Audio Copy V1.0 beta 3 from 29. August 2011

EAC extraction logfile from 1. December 2016, 10:22

Fluxion / Vibrant Forms

Used drive : PIONEER DVD-RW DVR-215D Adapter: 0 ID: 5

Read mode : Secure
Utilize accurate stream : Yes
Defeat audio cache : Yes
Make use of C2 pointers : No

Read offset correction : 48
Overread into Lead-In and Lead-Out : No
Fill up missing offset samples with silence : Yes
Delete leading and trailing silent blocks : No
Null samples used in CRC calculations : Yes
Used interface : Native Win32 interface for Win NT & 2000
Gap handling : Appended to previous track

Used output format : User Defined Encoder
Selected bitrate : 1024 kBit/s
Quality : High
Add ID3 tag : No
Command line compressor : C:\Program Files (x86)\Exact Audio Copy\FLAC\FLAC.EXE
Additional command line options : -8 -V -T "ARTIST=%artist%" -T "TITLE=%title%" -T "ALBUM=%albumtitle%" -T "DATE=%year%" -T "TRACKNUMBER=%tracknr%" -T "GENRE=%genre%" -T "PERFORMER=%albuminterpret%" -T "COMPOSER=%composer%" %haslyrics%--tag-from-file=LYRICS="%lyricsfile%"%haslyrics% -T "ALBUMARTIST=%albumartist%" -T "DISCNUMBER=%cdnumber%" -T "TOTALDISCS=%totalcds%" -T "TOTALTRACKS=%numtracks%" -T "COMMENT=%comment%" %source% -o %dest%

TOC of the extracted CD

Track | Start | Length | Start sector | End sector
---------------------------------------------------------
1 | 0:00.00 | 8:53.51 | 0 | 40025
2 | 8:53.51 | 7:14.70 | 40026 | 72645
3 | 16:08.46 | 2:02.63 | 72646 | 81858
4 | 18:11.34 | 8:24.39 | 81859 | 119697
5 | 26:35.73 | 10:32.65 | 119698 | 167162
6 | 37:08.63 | 0:47.00 | 167163 | 170687
7 | 37:55.63 | 9:29.55 | 170688 | 213417
8 | 47:25.43 | 6:02.02 | 213418 | 240569
9 | 53:27.45 | 6:49.72 | 240570 | 271316
10 | 60:17.42 | 8:45.13 | 271317 | 310704

Track 1

Filename C:\_transfert\01 - Lark.wav

Pre-gap length 0:00:02.00

Peak level 94.9 %
Extraction speed 5.5 X
Track quality 100.0 %
Test CRC 8481D949
Copy CRC 8481D949
Accurately ripped (confidence 6) [1AB04B66] (AR v2)
Copy OK

Track 2

Filename C:\_transfert\02 - Hiatus.wav

Pre-gap length 0:00:01.60

Peak level 94.5 %
Extraction speed 5.9 X
Track quality 99.9 %
Test CRC CC97154B
Copy CRC CC97154B
Accurately ripped (confidence 6) [2FAB12C7] (AR v2)
Copy OK

Track 3

Filename C:\_transfert\03 - Lapses.wav

Pre-gap length 0:00:01.60

Peak level 94.4 %
Extraction speed 4.6 X
Track quality 99.9 %
Test CRC 87C5BAD2
Copy CRC 87C5BAD2
Accurately ripped (confidence 6) [3401EF6A] (AR v2)
Copy OK

Track 4

Filename C:\_transfert\04 - Largo.wav

Pre-gap length 0:00:00.60

Peak level 96.7 %
Extraction speed 7.3 X
Track quality 100.0 %
Test CRC 684EA611
Copy CRC 684EA611
Accurately ripped (confidence 6) [7918F864] (AR v2)
Copy OK

Track 5

Filename C:\_transfert\05 - Atlos.wav

Pre-gap length 0:00:00.60

Peak level 95.4 %
Extraction speed 8.1 X
Track quality 100.0 %
Test CRC CA12FE71
Copy CRC CA12FE71
Accurately ripped (confidence 6) [18849432] (AR v2)
Copy OK

Track 6

Filename C:\_transfert\06 - Cyclops Machine.wav

Pre-gap length 0:00:01.60

Peak level 67.6 %
Extraction speed 4.9 X
Track quality 100.0 %
Test CRC 01C1FBF1
Copy CRC 01C1FBF1
Accurately ripped (confidence 6) [D1F7AE70] (AR v2)
Copy OK

Track 7

Filename C:\_transfert\07 - Fovea Centralis.wav

Pre-gap length 0:00:01.60

Peak level 94.0 %
Extraction speed 8.4 X
Track quality 99.9 %
Test CRC 49793CE2
Copy CRC 49793CE2
Accurately ripped (confidence 6) [0ACE07FE] (AR v2)
Copy OK

Track 8

Filename C:\_transfert\08 - Pendoulous.wav

Pre-gap length 0:00:01.60

Peak level 94.9 %
Extraction speed 9.0 X
Track quality 100.0 %
Test CRC 40E32D27
Copy CRC 40E32D27
Accurately ripped (confidence 6) [1E9E5E3B] (AR v2)
Copy OK

Track 9

Filename C:\_transfert\09 - Influx.wav

Pre-gap length 0:00:01.60

Peak level 85.7 %
Extraction speed 9.5 X
Track quality 100.0 %
Test CRC C337AAA6
Copy CRC C337AAA6
Accurately ripped (confidence 6) [A7E07DB3] (AR v2)
Copy OK

Track 10

Filename C:\_transfert\10 - Opaque.wav

Pre-gap length 0:00:01.60

Peak level 94.5 %
Extraction speed 10.1 X
Track quality 100.0 %
Test CRC 3D489A97
Copy CRC 3D489A97
Accurately ripped (confidence 6) [E5CA5C2B] (AR v2)
Copy OK

All tracks accurately ripped

No errors occurred

End of status report

==== Log checksum 7E5999FBA201FE38F93ABD94D60A9BF219BA735886A7468AD3EDAE560CD2DB58 ====

CUE


REM GENRE Techno
REM DATE 1999
REM DISCID 91102E0A
REM COMMENT "ExactAudioCopy v1.0b3"
CATALOG 0000000000000
PERFORMER "Fluxion"
TITLE "Vibrant Forms"
FILE "01 - Lark.wav" WAVE
TRACK 01 AUDIO
TITLE "Lark"
PERFORMER "Fluxion"
FLAGS DCP
INDEX 01 00:00:00
TRACK 02 AUDIO
TITLE "Hiatus"
PERFORMER "Fluxion"
FLAGS DCP
INDEX 00 08:52:06
FILE "02 - Hiatus.wav" WAVE
INDEX 01 00:00:00
TRACK 03 AUDIO
TITLE "Lapses"
PERFORMER "Fluxion"
FLAGS DCP
INDEX 00 07:13:25
FILE "03 - Lapses.wav" WAVE
INDEX 01 00:00:00
TRACK 04 AUDIO
TITLE "Largo"
PERFORMER "Fluxion"
FLAGS DCP
INDEX 00 02:02:18
FILE "04 - Largo.wav" WAVE
INDEX 01 00:00:00
TRACK 05 AUDIO
TITLE "Atlos"
PERFORMER "Fluxion"
FLAGS DCP
INDEX 00 08:23:69
FILE "05 - Atlos.wav" WAVE
INDEX 01 00:00:00
TRACK 06 AUDIO
TITLE "Cyclops Machine"
PERFORMER "Fluxion"
FLAGS DCP
INDEX 00 10:31:20
FILE "06 - Cyclops Machine.wav" WAVE
INDEX 01 00:00:00
TRACK 07 AUDIO
TITLE "Fovea Centralis"
PERFORMER "Fluxion"
FLAGS DCP
INDEX 00 00:45:30
FILE "07 - Fovea Centralis.wav" WAVE
INDEX 01 00:00:00
TRACK 08 AUDIO
TITLE "Pendoulous"
PERFORMER "Fluxion"
FLAGS DCP
INDEX 00 09:28:10
FILE "08 - Pendoulous.wav" WAVE
INDEX 01 00:00:00
TRACK 09 AUDIO
TITLE "Influx"
PERFORMER "Fluxion"
FLAGS DCP
INDEX 00 06:00:32
FILE "09 - Influx.wav" WAVE
INDEX 01 00:00:00
TRACK 10 AUDIO
TITLE "Opaque"
PERFORMER "Fluxion"
FLAGS DCP
INDEX 00 06:48:27
FILE "10 - Opaque.wav" WAVE
INDEX 01 00:00:00

2000 Vibrant Forms II (CD)

Год выпуска: 2000
Жанр: Dub Techno/Minimal/Ambient
Продолжительность: 01:08:42+01:00:49
Треклист:

CD1
01. Prospect I (01:46)
02. Prospect II (11:16)
03. Oblique (11:48)
04. Exposure (09:55)
05. Circa (04:14)
06. Equilibrium (04:00)
07. Enhancement (09:06)
08. Outerside (07:28)
09. Subliminal Tone (09:09)

CD2
01. Aviation (06:06)
02. Bipolar Defect (08:58)
03. Multidirectional I (09:04)
04. Bilateral Motion (04:15)
05. Friction Pulse (05:19)
06. Omnibus (03:27)
07. Stream I (05:32)
08. Stream II (04:23)
09. Interlock (04:37)
10. Multidirectional II (09:08)

EAC


EAC extraction logfile from 24. October 2006, 3:29 for CD
Fluxion / Vibrant Forms II (cd1)

Used drive : MATSHITADVD/CDRW UJDA770 Adapter: 1 ID: 0
Read mode : Secure with NO C2, accurate stream, disable cache
Read offset correction : 102
Overread into Lead-In and Lead-Out : No

Used output format : C:\Program Files\FLAC\flac.exe (User Defined Encoder)
192 kBit/s
Additional command line options : -V -8 -T "artist=%a" -T "title=%t" -T "album=%g" -T "date=%y" -T "tracknumber=%n" -T "genre=%m" %s

Other options :
Fill up missing offset samples with silence : Yes
Delete leading and trailing silent blocks : No
Native Win32 interface for Win NT & 2000

Track 1
Filename C:\Fluxion - Vibrant Forms II (cd1) (2000)\01 - Prospect I.wav

Pre-gap length 0:00:02.00

Peak level 99.0 %
Track quality 100.0 %
Test CRC 05B170A8
Copy CRC 05B170A8
Copy OK

Track 2
Filename C:\Fluxion - Vibrant Forms II (cd1) (2000)\02 - Prospect II.wav

Peak level 99.0 %
Track quality 100.0 %
Test CRC 7780A492
Copy CRC 7780A492
Copy OK

Track 3
Filename C:\Fluxion - Vibrant Forms II (cd1) (2000)\03 - Oblique.wav

Pre-gap length 0:00:00.13

Peak level 99.0 %
Track quality 100.0 %
Test CRC BF2E317D
Copy CRC BF2E317D
Copy OK

Track 4
Filename C:\Fluxion - Vibrant Forms II (cd1) (2000)\04 - Exposure.wav

Pre-gap length 0:00:02.13

Peak level 75.5 %
Track quality 100.0 %
Test CRC 3C38AB7C
Copy CRC 3C38AB7C
Copy OK

Track 5
Filename C:\Fluxion - Vibrant Forms II (cd1) (2000)\05 - Circa.wav

Pre-gap length 0:00:02.58

Peak level 97.7 %
Track quality 100.0 %
Test CRC D4C58C36
Copy CRC D4C58C36
Copy OK

Track 6
Filename C:\Fluxion - Vibrant Forms II (cd1) (2000)\06 - Equilibrium.wav

Pre-gap length 0:00:03.12

Peak level 79.7 %
Track quality 100.0 %
Test CRC DAA07C78
Copy CRC DAA07C78
Copy OK

Track 7
Filename C:\Fluxion - Vibrant Forms II (cd1) (2000)\07 - Enhancement.wav

Pre-gap length 0:00:01.85

Peak level 67.7 %
Track quality 100.0 %
Test CRC 963D5623
Copy CRC 963D5623
Copy OK

Track 8
Filename C:\Fluxion - Vibrant Forms II (cd1) (2000)\08 - Outerside.wav

Pre-gap length 0:00:02.77

Peak level 98.6 %
Track quality 100.0 %
Test CRC 4CDCB06F
Copy CRC 4CDCB06F
Copy OK

Track 9
Filename C:\Fluxion - Vibrant Forms II (cd1) (2000)\09 - Subliminial Tone.wav

Pre-gap length 0:00:00.10

Peak level 83.2 %
Track quality 100.0 %
Test CRC 5509F2F4
Copy CRC 5509F2F4
Copy OK

No errors occured

End of status report
-------------------------------------------------------------------------------------------------------------------

EAC extraction logfile from 24. October 2006, 7:39 for CD
Fluxion / Vibrant Forms II (cd2)

Used drive : MATSHITADVD/CDRW UJDA770 Adapter: 1 ID: 0
Read mode : Secure with NO C2, accurate stream, disable cache
Read offset correction : 102
Overread into Lead-In and Lead-Out : No

Used output format : C:\Program Files\FLAC\flac.exe (User Defined Encoder)
192 kBit/s
Additional command line options : -V -8 -T "artist=%a" -T "title=%t" -T "album=%g" -T "date=%y" -T "tracknumber=%n" -T "genre=%m" %s

Other options :
Fill up missing offset samples with silence : Yes
Delete leading and trailing silent blocks : No
Native Win32 interface for Win NT & 2000

Track 1
Filename C:\Fluxion - Vibrant Forms II (cd2) (2000)\01 - Aviation.wav

Pre-gap length 0:00:02.00

Peak level 58.2 %
Track quality 99.9 %
Test CRC B0F813AA
Copy CRC B0F813AA
Copy OK

Track 2
Filename C:\Fluxion - Vibrant Forms II (cd2) (2000)\02 - Bipolar Defect.wav

Pre-gap length 0:00:00.14

Peak level 96.3 %
Track quality 100.0 %
Test CRC F48F2885
Copy CRC F48F2885
Copy OK

Track 3
Filename C:\Fluxion - Vibrant Forms II (cd2) (2000)\03 - Multidirectional I.wav

Pre-gap length 0:00:03.09

Peak level 92.2 %
Track quality 100.0 %
Test CRC 62BC66C1
Copy CRC 62BC66C1
Copy OK

Track 4
Filename C:\Fluxion - Vibrant Forms II (cd2) (2000)\04 - Bilateral Motion.wav

Pre-gap length 0:00:02.06

Peak level 99.7 %
Track quality 100.0 %
Test CRC 74A80DF1
Copy CRC 74A80DF1
Copy OK

Track 5
Filename C:\Fluxion - Vibrant Forms II (cd2) (2000)\05 - Friction Pulse.wav

Pre-gap length 0:00:04.32

Peak level 88.9 %
Track quality 100.0 %
Test CRC 543C4DB6
Copy CRC 543C4DB6
Copy OK

Track 6
Filename C:\Fluxion - Vibrant Forms II (cd2) (2000)\06 - Omnibus.wav

Pre-gap length 0:00:03.68

Peak level 89.1 %
Track quality 99.9 %
Test CRC 915DAEB1
Copy CRC 915DAEB1
Copy OK

Track 7
Filename C:\Fluxion - Vibrant Forms II (cd2) (2000)\07 - Stream I.wav

Pre-gap length 0:00:02.25

Peak level 89.8 %
Track quality 100.0 %
Test CRC 671691AA
Copy CRC 671691AA
Copy OK

Track 8
Filename C:\Fluxion - Vibrant Forms II (cd2) (2000)\08 - Stream II.wav

Pre-gap length 0:00:00.72

Peak level 70.8 %
Track quality 100.0 %
Test CRC EBFA1AE5
Copy CRC EBFA1AE5
Copy OK

Track 9
Filename C:\Fluxion - Vibrant Forms II (cd2) (2000)\09 - Interlock.wav

Pre-gap length 0:00:02.36

Peak level 81.3 %
Track quality 100.0 %
Test CRC 7960033A
Copy CRC 7960033A
Copy OK

Track 10
Filename C:\Fluxion - Vibrant Forms II (cd2) (2000)\10 - Multidirectional II.wav

Pre-gap length 0:00:01.89

Peak level 84.1 %
Track quality 100.0 %
Test CRC 45E15AB1
Copy CRC 45E15AB1
Copy OK

No errors occured

End of status report

CUE


REM GENRE Dub Techno
REM DATE 2000
REM DISCID 78101909
REM COMMENT "ExactAudioCopy v0.95b4"
PERFORMER "Fluxion"
TITLE "Vibrant Forms II"
FILE "01. Prospect I.wav" WAVE
TRACK 01 AUDIO
TITLE "Prospect I"
PERFORMER "Fluxion"
INDEX 01 00:00:00
FILE "02. Prospect II.wav" WAVE
TRACK 02 AUDIO
TITLE "Prospect II"
PERFORMER "Fluxion"
INDEX 01 00:00:00
TRACK 03 AUDIO
TITLE "Oblique"
PERFORMER "Fluxion"
INDEX 00 11:16:03
FILE "03. Oblique.wav" WAVE
INDEX 01 00:00:00
TRACK 04 AUDIO
TITLE "Exposure"
PERFORMER "Fluxion"
INDEX 00 11:45:55
FILE "V04. Exposure.wav" WAVE
INDEX 01 00:00:00
TRACK 05 AUDIO
TITLE "Circa"
PERFORMER "Fluxion"
INDEX 00 09:51:70
FILE "05. Circa.wav" WAVE
INDEX 01 00:00:00
TRACK 06 AUDIO
TITLE "Equilibrium"
PERFORMER "Fluxion"
INDEX 00 04:11:22
FILE "06. Equilibrium.wav" WAVE
INDEX 01 00:00:00
TRACK 07 AUDIO
TITLE "Enhancement"
PERFORMER "Fluxion"
INDEX 00 03:58:19
FILE "07. Enhancement.wav" WAVE
INDEX 01 00:00:00
TRACK 08 AUDIO
TITLE "Outerside"
PERFORMER "Fluxion"
INDEX 00 09:03:47
FILE "08. Outerside.wav" WAVE
INDEX 01 00:00:00
TRACK 09 AUDIO
TITLE "Subliminial Tone"
PERFORMER "Fluxion"
INDEX 00 07:27:49
FILE "09. Subliminal Tone.wav" WAVE
INDEX 01 00:00:00
----------------------------------------------------------

REM GENRE Dub Techno
REM DATE 2000
REM DISCID 6D0E400A
REM COMMENT "ExactAudioCopy v0.95b4"
PERFORMER "Fluxion"
TITLE "Vibrant Forms II"
FILE "01. Aviation.wav" WAVE
TRACK 01 AUDIO
TITLE "Aviation"
PERFORMER "Fluxion"
INDEX 01 00:00:00
TRACK 02 AUDIO
TITLE "Bipolar Defect"
PERFORMER "Fluxion"
INDEX 00 06:06:06
FILE "02. Bipolar Defect.wav" WAVE
INDEX 01 00:00:00
TRACK 03 AUDIO
TITLE "Multidirectional I"
PERFORMER "Fluxion"
INDEX 00 08:55:09
FILE "03. Multidirectional I.wav" WAVE
INDEX 01 00:00:00
TRACK 04 AUDIO
TITLE "Bilateral Motion"
PERFORMER "Fluxion"
INDEX 00 09:01:58
FILE "04. Bilateral Motion.wav" WAVE
INDEX 01 00:00:00
TRACK 05 AUDIO
TITLE "Friction Pulse"
PERFORMER "Fluxion"
INDEX 00 04:10:30
FILE "05. Friction Pulse.wav" WAVE
INDEX 01 00:00:00
TRACK 06 AUDIO
TITLE "Omnibus"
PERFORMER "Fluxion"
INDEX 00 05:14:74
FILE "06. Omnibus.wav" WAVE
INDEX 01 00:00:00
TRACK 07 AUDIO
TITLE "Stream I"
PERFORMER "Fluxion"
INDEX 00 03:24:44
FILE "07. Stream I.wav" WAVE
INDEX 01 00:00:00
TRACK 08 AUDIO
TITLE "Stream II"
PERFORMER "Fluxion"
INDEX 00 05:31:16
FILE "08. Stream II.wav" WAVE
INDEX 01 00:00:00
TRACK 09 AUDIO
TITLE "Interlock"
PERFORMER "Fluxion"
INDEX 00 04:20:25
FILE "09. Interlock.wav" WAVE
INDEX 01 00:00:00
TRACK 10 AUDIO
TITLE "Multidirectional II"
PERFORMER "Fluxion"
INDEX 00 04:35:21
FILE "10. Multidirectional II.wav" WAVE
INDEX 01 00:00:00

2013 Vibrant Forms (CD)

Год выпуска: 2013
Жанр: Dub Techno/Ambient
Продолжительность: 01:09:04
Треклист:

01. Lark (08:53)
02. Hiatus (07:14)
03. Lapses (02:03)
04. Largo (08:26)
05. Atlos (10:32)
06. Cyclops Machine (00:46)
07. Fovea Centralis (09:28)
08. Pendoulous (06:02)
09. Influx (06:52)
10. Opaque (08:48)

EAC


Exact Audio Copy V1.3 from 2. September 2016

EAC extraction logfile from 13. January 2017, 23:31

Fluxion / Vibrant Forms

Used drive : TSSTcorpDVD+-RW SU-208GB Adapter: 1 ID: 0

Read mode : Secure
Utilize accurate stream : Yes
Defeat audio cache : Yes
Make use of C2 pointers : No

Read offset correction : 6
Overread into Lead-In and Lead-Out : No
Fill up missing offset samples with silence : Yes
Delete leading and trailing silent blocks : No
Null samples used in CRC calculations : Yes
Used interface : Native Win32 interface for Win NT & 2000
Gap handling : Appended to previous track

Used output format : User Defined Encoder
Selected bitrate : 896 kBit/s
Quality : High
Add ID3 tag : No
Command line compressor : C:\Program Files (x86)\Exact Audio Copy\FLAC\FLAC.EXE
Additional command line options : --best -V -T "ARTIST=%artist%" -T "TITLE=%title%" -T "ALBUM=%albumtitle%" -T "DATE=%year%" -T "TRACKNUMBER=%tracknr%" -T "GENRE=%genre%" -T "COMMENT=%comment%" -T "BAND=%albuminterpret%" -T "ALBUMARTIST=%albuminterpret%" -T "COMPOSER=%composer%" -T "DISCNUMBER=%cdnumber%" %source% -o %dest%

TOC of the extracted CD

Track | Start | Length | Start sector | End sector
---------------------------------------------------------
1 | 0:00.00 | 8:53.20 | 0 | 39994
2 | 8:53.20 | 7:14.20 | 39995 | 72564
3 | 16:07.40 | 2:03.21 | 72565 | 81810
4 | 18:10.61 | 8:25.70 | 81811 | 119755
5 | 26:36.56 | 10:32.12 | 119756 | 167167
6 | 37:08.68 | 0:46.11 | 167168 | 170628
7 | 37:55.04 | 9:28.23 | 170629 | 213251
8 | 47:23.27 | 6:01.55 | 213252 | 240381
9 | 53:25.07 | 6:51.65 | 240382 | 271271
10 | 60:16.72 | 8:47.66 | 271272 | 310862

Track 1

Filename C:\Users\Tamás\Desktop\Fluxion - Vibrant Forms\01 - Lark - Fluxion.wav

Pre-gap length 0:00:02.00

Peak level 96.7 %
Extraction speed 3.1 X
Track quality 100.0 %
Test CRC D7F82529
Copy CRC D7F82529
Accurately ripped (confidence 8) [CB11827B] (AR v2)
Copy OK

Track 2

Filename C:\Users\Tamás\Desktop\Fluxion - Vibrant Forms\02 - Hiatus - Fluxion.wav

Peak level 96.7 %
Extraction speed 3.2 X
Track quality 99.9 %
Test CRC 33A8CC91
Copy CRC 33A8CC91
Accurately ripped (confidence 8) [380B3773] (AR v2)
Copy OK

Track 3

Filename C:\Users\Tamás\Desktop\Fluxion - Vibrant Forms\03 - Lapses - Fluxion.wav

Peak level 96.6 %
Extraction speed 3.1 X
Track quality 100.0 %
Test CRC 9B4D62CE
Copy CRC 9B4D62CE
Accurately ripped (confidence 8) [04D0CCBA] (AR v2)
Copy OK

Track 4

Filename C:\Users\Tamás\Desktop\Fluxion - Vibrant Forms\04 - Largo - Fluxion.wav

Peak level 96.7 %
Extraction speed 3.7 X
Track quality 99.9 %
Test CRC D0AF81B8
Copy CRC D0AF81B8
Accurately ripped (confidence 8) [5F210A2F] (AR v2)
Copy OK

Track 5

Filename C:\Users\Tamás\Desktop\Fluxion - Vibrant Forms\05 - Atlos - Fluxion.wav

Peak level 95.4 %
Extraction speed 4.5 X
Track quality 100.0 %
Test CRC 17363053
Copy CRC 17363053
Accurately ripped (confidence 8) [E1647958] (AR v2)
Copy OK

Track 6

Filename C:\Users\Tamás\Desktop\Fluxion - Vibrant Forms\06 - Cyclops Machine - Fluxion.wav

Peak level 96.6 %
Extraction speed 1.7 X
Track quality 99.7 %
Test CRC 6AE9EABD
Copy CRC 6AE9EABD
Accurately ripped (confidence 8) [9F50AFE4] (AR v2)
Copy OK

Track 7

Filename C:\Users\Tamás\Desktop\Fluxion - Vibrant Forms\07 - Fovea Centralis - Fluxion.wav

Peak level 96.7 %
Extraction speed 4.9 X
Track quality 100.0 %
Test CRC F6E890AA
Copy CRC F6E890AA
Accurately ripped (confidence 8) [A48668CB] (AR v2)
Copy OK

Track 8

Filename C:\Users\Tamás\Desktop\Fluxion - Vibrant Forms\08 - Pendoulous - Fluxion.wav

Peak level 93.6 %
Extraction speed 5.0 X
Track quality 100.0 %
Test CRC BE11360F
Copy CRC BE11360F
Accurately ripped (confidence 8) [7BA31E04] (AR v2)
Copy OK

Track 9

Filename C:\Users\Tamás\Desktop\Fluxion - Vibrant Forms\09 - Influx - Fluxion.wav

Peak level 96.6 %
Extraction speed 5.2 X
Track quality 100.0 %
Test CRC 5C26CE94
Copy CRC 5C26CE94
Accurately ripped (confidence 8) [F15FA2D0] (AR v2)
Copy OK

Track 10

Filename C:\Users\Tamás\Desktop\Fluxion - Vibrant Forms\10 - Opaque - Fluxion.wav

Peak level 96.7 %
Extraction speed 5.1 X
Track quality 99.9 %
Test CRC E70AFECE
Copy CRC E70AFECE
Accurately ripped (confidence 8) [2A4FA1C6] (AR v2)
Copy OK

All tracks accurately ripped

No errors occurred

End of status report

---- CUETools DB Plugin V2.1.6

[CTDB TOCID: 48F.Dhiz2Hllsh7l5Ag.0mQ0c.k-] found
Submit result: 48F.Dhiz2Hllsh7l5Ag.0mQ0c.k- has been confirmed
Track | CTDB Status
1 | (11/11) Accurately ripped
2 | (11/11) Accurately ripped
3 | (11/11) Accurately ripped
4 | (11/11) Accurately ripped
5 | (11/11) Accurately ripped
6 | (11/11) Accurately ripped
7 | (11/11) Accurately ripped
8 | (11/11) Accurately ripped
9 | (11/11) Accurately ripped
10 | (10/11) Accurately ripped, or (1/11) differs in 10 samples @08:47:52

==== Log checksum 61C5A4400AEC15BFA66ABC8CB8A011FBC61B1F2BAAE1D359AA93FBBA672DFBD1 ====

CUE


REM DATE 1999
REM DISCID 9410300A
REM COMMENT "ExactAudioCopy v1.3"
PERFORMER "Fluxion"
TITLE "Vibrant Forms"
REM COMPOSER ""
FILE "01 - Lark - Fluxion.wav" WAVE
TRACK 01 AUDIO
TITLE "Lark"
PERFORMER "Fluxion"
REM COMPOSER ""
INDEX 01 00:00:00
FILE "02 - Hiatus - Fluxion.wav" WAVE
TRACK 02 AUDIO
TITLE "Hiatus"
PERFORMER "Fluxion"
REM COMPOSER ""
INDEX 01 00:00:00
FILE "03 - Lapses - Fluxion.wav" WAVE
TRACK 03 AUDIO
TITLE "Lapses"
PERFORMER "Fluxion"
REM COMPOSER ""
INDEX 01 00:00:00
FILE "04 - Largo - Fluxion.wav" WAVE
TRACK 04 AUDIO
TITLE "Largo"
PERFORMER "Fluxion"
REM COMPOSER ""
INDEX 01 00:00:00
FILE "05 - Atlos - Fluxion.wav" WAVE
TRACK 05 AUDIO
TITLE "Atlos"
PERFORMER "Fluxion"
REM COMPOSER ""
INDEX 01 00:00:00
FILE "06 - Cyclops Machine - Fluxion.wav" WAVE
TRACK 06 AUDIO
TITLE "Cyclops Machine"
PERFORMER "Fluxion"
REM COMPOSER ""
INDEX 01 00:00:00
FILE "07 - Fovea Centralis - Fluxion.wav" WAVE
TRACK 07 AUDIO
TITLE "Fovea Centralis"
PERFORMER "Fluxion"
REM COMPOSER ""
INDEX 01 00:00:00
FILE "08 - Pendoulous - Fluxion.wav" WAVE
TRACK 08 AUDIO
TITLE "Pendoulous"
PERFORMER "Fluxion"
REM COMPOSER ""
INDEX 01 00:00:00
FILE "09 - Influx - Fluxion.wav" WAVE
TRACK 09 AUDIO
TITLE "Influx"
PERFORMER "Fluxion"
REM COMPOSER ""
INDEX 01 00:00:00
FILE "10 - Opaque - Fluxion.wav" WAVE
TRACK 10 AUDIO
TITLE "Opaque"
PERFORMER "Fluxion"
REM COMPOSER ""
INDEX 01 00:00:00

2016 Vibrant Forms II (WEB)

Год выпуска: 2016
Жанр: Dub Techno/Ambient
Продолжительность: 02:09:59
Треклист:

01. Prospect I (01:48)
02. Prospect II (11:19)
03. Oblique (11:49)
04. Exposure (09:56)
05. Circa (04:16)
06. Equilibrium (04:02)
07. Enhancement (09:08)
08. Outerside (07:29)
09. Subliminal Tone (09:10)
10. Aviation (06:08)
11. Bipolar Defect (09:00)
12. Multidirectional I (09:05)
13. Bilateral Motion (04:16)
14. Friction Pulse (05:20)
15. Omnibus (03:28)
16. Stream I (05:33)
17. Stream II (04:24)
18. Interlock (04:39)
19. Multidirectional II (09:09)

Лог проверки качества


-----------------------

DON'T MODIFY THIS FILE

-----------------------

PERFORMER: auCDtect Task Manager, ver. 1.6.0 RC1 build 1.6.0.1
Copyright (c) 2008-2010 y-soft. All rights reserved
http://y-soft.org

ANALYZER: auCDtect: CD records authenticity detector, version 0.8.2
Copyright (c) 2004 Oleg Berngardt. All rights reserved.
Copyright (c) 2004 Alexander Djourik. All rights reserved.

FILE: 19. Multidirectional II.flac
Size: 61475542 Hash: 1239A50D20F6EF5E7E2AFF46086837E7 Accuracy: -m0
Conclusion: CDDA 100%
Signature: 29BAEF3EE9555EF2C277FBCCE07CD8D52F7D1288
FILE: 18. Interlock.flac
Size: 27823893 Hash: F84FE861AC5B35179630CD4DCE5A2936 Accuracy: -m0
Conclusion: CDDA 100%
Signature: 683B9CEB716BED78FBB5DB1619A64E53AF129B25
FILE: 17. Stream II.flac
Size: 28064426 Hash: DCFB0A669C638683BD6ECE13980CDBA9 Accuracy: -m0
Conclusion: CDDA 100%
Signature: 63DCF8CA197744D0CB4F20AC8D923D7AAB15035A
FILE: 16. Stream I.flac
Size: 37475839 Hash: 65A92388304A32AAC1D25045BFD558D3 Accuracy: -m0
Conclusion: CDDA 100%
Signature: 1378B1653414116677E19FA87F2924AA61A6D19F
FILE: 15. Omnibus.flac
Size: 20126854 Hash: EAB5D551C4DACA67F678FF716D7213CC Accuracy: -m0
Conclusion: CDDA 99%
Signature: C738C5C112355F848A54FE9C15F9CA00F8CE7A08
FILE: 14. Friction Pulse.flac
Size: 33779218 Hash: B5D79DACE0B795C9AC890C0C14C89D1D Accuracy: -m0
Conclusion: CDDA 100%
Signature: BD2F87CB4C9E2E801F8A03E85B773B70A527DC92
FILE: 13. Bilateral Motion.flac
Size: 23989143 Hash: 9ED910B445F3D0B42923A5B2D98FE60C Accuracy: -m0
Conclusion: CDDA 100%
Signature: 08FBACAF639D97B570462BFDE9E0D4F76CAED32F
FILE: 12. Multidirectional I.flac
Size: 51896742 Hash: 13DC267F610896044CAC35C57BEF2A42 Accuracy: -m0
Conclusion: CDDA 100%
Signature: DD127AFEFB9C17115AC1C747327DE1E75581EEAF
FILE: 11. Bipolar Defect.flac
Size: 47186590 Hash: 729991C9283B81C9FC4E06C5E240C3DB Accuracy: -m0
Conclusion: CDDA 99%
Signature: 79840897EFCAF147848A6DE566A06EB08A9380EC
FILE: 10. Aviation.flac
Size: 39927590 Hash: 18BD3D2F62E1282C1C5BF4D235E1CB0A Accuracy: -m0
Conclusion: CDDA 100%
Signature: 21F0983EF91E70D5E34A2934D095F13172C37F13
FILE: 09. Subliminal Tone.flac
Size: 54543567 Hash: 47786E2F6BC6776145572C832DEDDACC Accuracy: -m0
Conclusion: CDDA 100%
Signature: 155D2A2492ECBFB68B94867CB0C0AE9B5BE752D4
FILE: 08. Outerside.flac
Size: 45535800 Hash: 13B257FAB5B244D29531E28A931FD69A Accuracy: -m0
Conclusion: CDDA 100%
Signature: F109B988BB1DFEA4CE954982D1F48B01349DFCBC
FILE: 07. Enhancement.flac
Size: 61726122 Hash: 93489E90ED524B49959634AA7FAEB21A Accuracy: -m0
Conclusion: CDDA 100%
Signature: ADB3C615FFC961717CC9D9D0C61A2E7164C1B597
FILE: 06. Equilibrium.flac
Size: 24440484 Hash: 1708A7F9A2FC215FD5A94E6428DE89A3 Accuracy: -m0
Conclusion: CDDA 100%
Signature: 1677086DED3F6DA59F77230BED7555EB13C32BBC
FILE: 05. Circa.flac
Size: 26698256 Hash: 04C5DCE75F04D943563EAAA67DEF12D6 Accuracy: -m0
Conclusion: CDDA 100%
Signature: 3E07976D13BFB9E66FD22DBDB5F0F742DD61859E
FILE: 04. Exposure.flac
Size: 57260571 Hash: 977B06652A576AF2329D6EE14FC1EB88 Accuracy: -m0
Conclusion: CDDA 99%
Signature: D7C649C0CEC05DE4A43AA7D011661E1504ED9FDF
FILE: 03. Oblique.flac
Size: 69797972 Hash: 3B64F9850E8FD9AD2B7CD08D16B26AE3 Accuracy: -m0
Conclusion: CDDA 99%
Signature: 2D0827CE5922DC29BA3F5B0CC7A78865DFCB8149
FILE: 02. Prospect II.flac
Size: 63325486 Hash: 766F6192BAD675099AFAF77AAC927B95 Accuracy: -m0
Conclusion: CDDA 100%
Signature: BDF322F290EAFCDAE6E2ECC663FEEE73C09BB03E
FILE: 01. Prospect I.flac
Size: 9318993 Hash: 41055884343A8B8D032380FBDA530B6E Accuracy: -m0
Conclusion: CDDA 100%
Signature: EAB4943871899552EAA855106326344805FBFEA4

Discogs

Детали торрента:
Название:Fluxion - Discography 21 Releases (1999-2018) Chain Reaction, Subwax Bcn, Vibrant Music, Echocord [FLAC|Lossless|tracks+.cue, tracks] <Dub Techno, Minimal, Techno, Dub, Ambient>
Дата добавления:17 Май 2018 07:21:52
Размер:6,1 GB
Раздают:1
Качают:2
Форум:House, Techno, Electro, Minimal (Lossless)

All rights reserved © 2015-2018