TORRENTS43.COM

Скачать Бессонная ночь (1960) DVBRip


Бессонная ночь (1960) DVBRip
Производство: СССР, Киностудия им. Горького
Жанр: Драма

Режиссер: Исидор Анненский
Актеры: Юрий Соломин, Евгений Самойлов, Людмила Чернышева, Джемма Осмоловская, Маргарита Володина, Александр Граве, Луиза Кошукова, Геннадий Карнович-Валуа, Алексей Грибов, Андрей Тутышкин, Иван Любезнов, Юрий Медведев, Инна Выходцева, Л. Нечаева, Леонид Чубаров, Вадим Захарченко, Олег Туманов

Описание:
По мотивам повести Н. Дементьева "Мои дороги".Молодой инженер едет к месту назначения — в портовый город Сибирск, где его назначают руководить группой крановщиков. Герой довольно быстро осваивается с портовой работой. А вскоре в Сибирск приезжает его невеста, архитектор по профессии…


Возраст: 12+ (зрителям, достигшим 12 лет)

Продолжительность: 01:26:09
Качество видео: DVBRip

Видео: MPEG-2, 704x576@768x576, ~3859 Kbps
Аудио: AC3, 2 ch, 192 Kbps

Mediainfo:


Общее
Полное имя : U:\Бессонная ночь (1960) DVBRip.mpg
Формат : MPEG-PS
Размер файла : 2,49 Гбайт
Продолжительность : 1 ч. 26 м.
Режим общего битрейта : Переменный
Общий поток : 4133 Кбит/сек
Библиотека кодирования : encoded by TMPGEnc MPEG Editor 2.0 Version. 2.2.8.177

Видео
Идентификатор : 224 (0xE0)
Формат : MPEG Video
Версия формата : Version 2
Профиль формата : Main@Main
Настройки формата : CustomMatrix / BVOP
Параметр BVOP формата : Да
Параметр матрицы формата : Выборочная
Параметр GOP формата : Variable
Структура изображения : Frame
Продолжительность : 1 ч. 26 м.
Вид битрейта : Переменный
Битрейт : 3859 Кбит/сек
Максимальный битрейт : 15,0 Мбит/сек
Ширина : 704 пикселя
Высота : 576 пикселей
Соотношение сторон : 4:3
Частота кадров : 25,000 кадров/сек
Стандарт вещания : PAL
Цветовое пространство : YUV
Субдискретизация насыщенности : 4:2:0
Битовая глубина : 8 бит
Тип развёртки : Чересстрочная
Порядок развёртки : Верхнее поле первое
Метод сжатия : С потерями
Бит/(Пиксели*Кадры) : 0.381
Временной код первого кадра : 00:00:00:00
Оригинал временного кода : Group of pictures header
Размер потока : 2,32 Гбайт (93%)
Библиотека кодирования : TMPGEnc MPEG Editor 2.2.8.177
Коэффициенты матрицы : BT.601

Аудио
Идентификатор : 189 (0xBD)-128 (0x80)
Формат : AC-3
Формат/Информация : Audio Coding 3
Режим смешивания : DVD-Video
Продолжительность : 1 ч. 26 м.
Вид битрейта : Постоянный
Битрейт : 192 Кбит/сек
Каналы : 2 канала
Расположение каналов : Front: L R
Частота : 48,0 КГц
Частота кадров : 31,250 кадров/сек (1536 SPF)
Битовая глубина : 16 бит
Метод сжатия : С потерями
Размер потока : 118 Мбайт (5%)
ServiceKind/String : Complete Main
Скриншоты:

Дополнительные скриншоты:





Все одноименные релизы в Клубе

Смотреть Online

http://moonwalk.cc/video/6e7992c116d0c1070bc5936617261f51/iframe
Детали торрента:
Название:Бессонная ночь (1960) DVBRip
Дата добавления:11 Июн 2018 13:26:06
Размер:2,49 GB
Раздают:2
Качают:4
Форум:Отечественная Классика (HD*Rip/LQ, DVDRip, SATRip, VHSRip)

All rights reserved © 2015-2018