TORRENTS43.COM

Скачать Код 211 / 211 (2018) WEBRip [H.264/720p-LQ] [MVO]


Код 211 / 211 (2018) WEBRip
Производство: США / Millennium Films, 211 Productions, Nu Image Bulgaria
Жанр: Боевик, Драма

Режиссер: Йорк Шеклтон
Актеры: Николас Кейдж, Софи Скелтон, Майкл Рейни мл., Дуэйн Камерон, Уэстон Кейдж, Кори Хардрикт, Ори Феффер, Марк Баснайт, Аманда Серни, Майкл Беллисарио

Описание:
Полицейский код 211 — ограбление банка. Такой сигнал получает офицер Чандлер во время своей смены. Он бросается на место событий, чтобы не позволить преступникам сбежать с добычей.


Рейтинг MPAA: R (лицам до 17 лет обязательно присутствие взрослого)
Дата мировой премьеры: 30.05.2018
Дата российской премьеры: Неизвестно

Продолжительность: 01:27:04
Качество видео: WEBRip 720p
Перевод: Многоголосый закадровый, любительский (MUZOBOZ)
Субтитры: Английские, отключаемые (full)

Видео: AVC/H.264, 1280x690, ~2600 Kbps
Аудио #1: AC3, 2 ch, 384 Kbps (Русский)
Аудио #2: AC3, 6 ch, 384 Kbps (Английский)

Mediainfo:


General
Unique ID : 74796816796365507089305704289788306152 (0x384557C9B0AA358ED1BB145794C922E8)
Complete name : 211.2018.RU.EN.WEBRip.720p.MIXTV.mkv
Format : Matroska
Format version : Version 4 / Version 2
File size : 2.05 GiB
Duration : 1 h 27 min
Overall bit rate : 3 369 kb/s
Movie name : 2018 WEBRip 720p from MIXTV
Encoded date : UTC 2018-06-11 16:34:12
Writing application : mkvmerge v24.0.0 ('Beyond The Pale') 64-bit
Writing library : libebml v1.3.6 + libmatroska v1.4.9

Video
ID : 1
Format : AVC
Format/Info : Advanced Video Codec
Format profile : High@L4.1
Format settings : CABAC / 9 Ref Frames
Format settings, CABAC : Yes
Format settings, RefFrames : 9 frames
Codec ID : V_MPEG4/ISO/AVC
Duration : 1 h 27 min
Bit rate : 2 600 kb/s
Width : 1 280 pixels
Height : 690 pixels
Display aspect ratio : 1.85:1
Frame rate mode : Constant
Frame rate : 23.976 (24000/1001) FPS
Color space : YUV
Chroma subsampling : 4:2:0
Bit depth : 8 bits
Scan type : Progressive
Bits/(Pixel*Frame) : 0.123
Stream size : 1.58 GiB (77%)
Title : 211.2018.WEBRip
Writing library : x264 core 155 r2893 b00bcaf
Encoding settings : cabac=1 / ref=9 / deblock=1:-1:-1 / analyse=0x3:0x133 / me=umh / subme=9 / psy=1 / psy_rd=1.00:0.15 / mixed_ref=1 / me_range=24 / chroma_me=1 / trellis=2 / 8x8dct=1 / cqm=0 / deadzone=21,11 / fast_pskip=1 / chroma_qp_offset=-3 / threads=6 / lookahead_threads=1 / sliced_threads=0 / nr=0 / decimate=1 / interlaced=0 / bluray_compat=0 / constrained_intra=0 / bframes=6 / b_pyramid=2 / b_adapt=2 / b_bias=0 / direct=3 / weightb=1 / open_gop=0 / weightp=2 / keyint=240 / keyint_min=24 / scenecut=40 / intra_refresh=0 / rc_lookahead=60 / rc=2pass / mbtree=1 / bitrate=2600 / ratetol=1.0 / qcomp=0.60 / qpmin=0 / qpmax=69 / qpstep=4 / cplxblur=20.0 / qblur=0.5 / vbv_maxrate=62500 / vbv_bufsize=78125 / nal_hrd=none / filler=0 / ip_ratio=1.40 / aq=1:1.00
Language : English
Default : Yes
Forced : Yes
Color range : Limited
Color primaries : BT.709
Transfer characteristics : BT.709
Matrix coefficients : BT.709

Audio #1
ID : 2
Format : AC-3
Format/Info : Audio Coding 3
Codec ID : A_AC3
Duration : 1 h 27 min
Bit rate mode : Constant
Bit rate : 384 kb/s
Channel(s) : 2 channels
Channel positions : Front: L R
Sampling rate : 48.0 kHz
Frame rate : 31.250 FPS (1536 SPF)
Bit depth : 16 bits
Compression mode : Lossy
Stream size : 239 MiB (11%)
Title : MVO [MUZOBOZ]
Language : Russian
Service kind : Complete Main
Default : Yes
Forced : Yes

Audio #2
ID : 3
Format : AC-3
Format/Info : Audio Coding 3
Codec ID : A_AC3
Duration : 1 h 27 min
Bit rate mode : Constant
Bit rate : 384 kb/s
Channel(s) : 6 channels
Channel positions : Front: L C R, Side: L R, LFE
Sampling rate : 48.0 kHz
Frame rate : 31.250 FPS (1536 SPF)
Bit depth : 16 bits
Compression mode : Lossy
Stream size : 239 MiB (11%)
Title : Original
Language : English
Service kind : Complete Main
Default : No
Forced : No

Text
ID : 4
Format : UTF-8
Codec ID : S_TEXT/UTF8
Codec ID/Info : UTF-8 Plain Text
Duration : 1 h 22 min
Bit rate : 61 b/s
Count of elements : 1149
Stream size : 36.9 KiB (0%)
Title : Full
Language : English
Default : No
Forced : No
Скриншоты:

Дополнительные скриншоты:



Все одноименные релизы в Клубе

Смотреть Online

http://moonwalk.cc/video/8bc4960d55e65c6b/iframe
Детали торрента:
Название:Код 211 / 211 (2018) WEBRip [H.264/720p-LQ] [MVO]
Дата добавления:12 Июн 2018 12:34:16
Размер:2,05 GB
Раздают:53
Качают:8
Форум:Зарубежные Новинки (HD*Rip/LQ, DVDRip)

All rights reserved © 2015-2018