TORRENTS43.COM

Скачать Амстердамский кошмар / Amsterdamned (1987) DVDRip [H.264]


Амстердамский кошмар / Amsterdamned (1987) DVDRip [H.264]
Производство: Нидерланды / First Floor Features
Жанр: Ужасы, Боевик, Триллер, Криминал, Детектив

Режиссер: Дик Мас
Продюсер: Дик Мас, Лоренс Гилс
Актеры: Хуб Стапель, Моник ван де Вен, Серж-Анри Вальке, Хидде Мас, Вим Зомер, Таннеке Хартзёйкер, Лу Ландре, Татум Дагелет, Эдвин Баккер, Питер Лутс

Описание:
Молодому детективу полиции Эрику Виссеру поручают расследовать серию загадочных убийств, совершенных неизвестным маньяком в каналах Амстердама. Бессмысленность и зверская жестокость убийств не позволяет сделать каких-либо выводов и затрудняют следствие.
Как успокоить местное население? С помощью помощника и молодой женщины Лауры Эрику удается напасть на след преступника.


Рейтинг MPAA: R (лицам до 17 лет обязательно присутствие взрослого)

Релиз от: Охрана (Torrents43.com)
Продолжительность: 01:48:54
Качество видео: DVDRip
Перевод: Двухголосый закадровый, авторский
Субтитры: Отсутствуют

Видео: AVC/H.264, 720x400, ~1860 Kbps
Аудио 1: Русский, AC3, 2 ch, 192 Kbps, 48.0 kHz (DVO, НТВ)
Аудио 2: Русский, AC3, 2 ch, 192 Kbps, 48.0 kHz (AVO, А. Васильев)
Аудио 3: Голландский, AC3, 2 ch, 192 Kbps, 48.0 kHz (Оригинал)

Mediainfo:


Общее
Уникальный идентификатор : 250401085790243597115191172716536380399 (0xBC617EB346ECEEBBA42FB04C03F1BBEF)
Полное имя : F:\Downloads\Амстердамский кошмар. 1987. torrents43.comv
Формат : Matroska
Версия формата : Version 4 / Version 2
Размер файла : 1,85 Гбайт
Продолжительность : 1 ч. 48 м.
Общий поток : 2438 Кбит/сек
Дата кодирования : UTC 2018-06-12 06:25:40
Программа кодирования : mkvmerge v7.9.0 ('Birds') 64bit
Библиотека кодирования : libebml v1.3.1 + libmatroska v1.4.2

Видео
Идентификатор : 1
Формат : AVC
Формат/Информация : Advanced Video Codec
Профиль формата : High@L4.1
Настройки формата : CABAC / 12 Ref Frames
Параметр CABAC формата : Да
Параметр RefFrames формата : 12 кадров
Идентификатор кодека : V_MPEG4/ISO/AVC
Продолжительность : 1 ч. 48 м.
Битрейт : 1860 Кбит/сек
Ширина : 720 пикселей
Высота : 400 пикселей
Соотношение сторон : 16:9
Режим частоты кадров : Постоянный
Частота кадров : 25,000 кадров/сек
Цветовое пространство : YUV
Субдискретизация насыщенности : 4:2:0
Битовая глубина : 8 бит
Тип развёртки : Прогрессивная
Бит/(Пиксели*Кадры) : 0.258
Размер потока : 1,41 Гбайт (76%)
Заголовок : Amsterdamned
Библиотека кодирования : x264 core 146 r2538 121396c
Настройки программы : cabac=1 / ref=12 / deblock=1:-1:-1 / analyse=0x3:0x113 / me=umh / subme=10 / psy=1 / psy_rd=1.00:0.10 / mixed_ref=1 / me_range=32 / chroma_me=1 / trellis=2 / 8x8dct=1 / cqm=0 / deadzone=21,11 / fast_pskip=0 / chroma_qp_offset=-3 / threads=6 / lookahead_threads=1 / sliced_threads=0 / nr=0 / decimate=0 / interlaced=0 / bluray_compat=0 / constrained_intra=0 / bframes=7 / b_pyramid=2 / b_adapt=2 / b_bias=0 / direct=3 / weightb=1 / open_gop=0 / weightp=2 / keyint=250 / keyint_min=25 / scenecut=40 / intra_refresh=0 / rc_lookahead=60 / rc=2pass / mbtree=1 / bitrate=1860 / ratetol=1.0 / qcomp=0.60 / qpmin=0 / qpmax=69 / qpstep=4 / cplxblur=20.0 / qblur=0.5 / vbv_maxrate=14000 / vbv_bufsize=14000 / nal_hrd=none / filler=0 / ip_ratio=1.40 / aq=1:1.00
Default : Да
Forced : Нет

Аудио #1
Идентификатор : 2
Формат : AC-3
Формат/Информация : Audio Coding 3
Идентификатор кодека : A_AC3
Продолжительность : 1 ч. 48 м.
Вид битрейта : Постоянный
Битрейт : 192 Кбит/сек
Каналы : 2 канала
Расположение каналов : Front: L R
Частота : 48,0 КГц
Частота кадров : 31,250 кадров/сек (1536 SPF)
Битовая глубина : 16 бит
Метод сжатия : С потерями
Размер потока : 150 Мбайт (8%)
Заголовок : Двухголосый закадровый
Язык : Russian
ServiceKind/String : Complete Main
Default : Да
Forced : Нет

Аудио #2
Идентификатор : 3
Формат : AC-3
Формат/Информация : Audio Coding 3
Идентификатор кодека : A_AC3
Продолжительность : 1 ч. 48 м.
Вид битрейта : Постоянный
Битрейт : 192 Кбит/сек
Каналы : 2 канала
Расположение каналов : Front: L R
Частота : 48,0 КГц
Частота кадров : 31,250 кадров/сек (1536 SPF)
Битовая глубина : 16 бит
Метод сжатия : С потерями
Размер потока : 150 Мбайт (8%)
Заголовок : Авторский, А. Васильев
Язык : Russian
ServiceKind/String : Complete Main
Default : Нет
Forced : Нет

Аудио #3
Идентификатор : 4
Формат : AC-3
Формат/Информация : Audio Coding 3
Идентификатор кодека : A_AC3
Продолжительность : 1 ч. 48 м.
Вид битрейта : Постоянный
Битрейт : 192 Кбит/сек
Каналы : 2 канала
Расположение каналов : Front: L R
Частота : 48,0 КГц
Частота кадров : 31,250 кадров/сек (1536 SPF)
Битовая глубина : 16 бит
Метод сжатия : С потерями
Размер потока : 150 Мбайт (8%)
Заголовок : Голландский
ServiceKind/String : Complete Main
Default : Нет
Forced : Нет
Скриншоты:

Дополнительные скриншоты:



Все одноименные релизы в Клубе
Детали торрента:
Название:Амстердамский кошмар / Amsterdamned (1987) DVDRip [H.264]
Дата добавления:13 Июн 2018 14:06:18
Размер:1,85 GB
Раздают:5
Качают:0
Форум:Старые Зарубежные Фильмы (HD*Rip/LQ, DVDRip, SATRip, VHSRip)

All rights reserved © 2015-2018