TORRENTS43.COM

Скачать Дьявольские врата / Devil's Gate (2017) BDRip [H.264/1080p-LQ] [MVO]


Дьявольские врата / Devil's Gate (2017) BDRip [H.264/1080p-LQ] [MVO]
Производство: Канада, США / Caramel Film, Mednick Productions
Жанр: Ужасы, Триллер, Фантастика

Режиссер: Клэй Стауб
Актеры: Майло Вентимилья, Бриджет Риган, Аманда Шулл, Джонатан Фрейкс, Хавьер Ботет, Шон Эшмор, Адам Хертиг, Спенсер Древер, Скотт Джонсон, Уилл Войтович

Описание:
Агент ФБР Дарина Френсис расследует дело об исчезновении Марии Причард и её сына Джона. Главным подозреваемым становится супруг Марии Джексон Причард, о чем сообщила сестра пропавшей. И действительно, сложно его не заподозрить — мужчина обтянул забор колючей проволокой, заколотил окна, наставил вокруг капканов и прочих страшных ловушек, выглядит и ведёт себя как будто явно не в себе. Прибыв к дому Причардов за 50 миль от города и арестовав Джексона, агент Френсис вместе с местным полицейским Солтером становятся свидетелями странных явлений: все автомобили выходят из строя, телефоны не включаются, и вдруг начинается жуткая гроза. Похоже, им придется провести ночь в доме наедине с задержанным.


Дата мировой премьеры: 24 апреля 2017
Дата российской премьеры: -

Релиз от: Torrents43.com
Продолжительность: 01:34:14
Качество видео: BDRip (batonchik)
Перевод: Профессиональный (многоголосый, закадровый) Jaskier
Субтитры: Английские

Видео: AVC, 1920x802 (2.40:1), 23.976 fps, 4049 Kbps
Аудио: AC-3, 48.0 KHz, 6 ch, 384 Kbps | Russian

h.264 log:

--[Information] [Ср 13.06.18 13:08:10] Standard error stream
---[Information] [Ср 13.06.18 13:08:18] y4m [info]: 1920x802p 1:1 @ 24000/1001 fps (cfr)
---[Information] [Ср 13.06.18 13:08:18] x264 [info]: using SAR=1/1
---[Information] [Ср 13.06.18 13:08:18] x264 [info]: using cpu capabilities: MMX2 SSE2Fast SSSE3 SSE4.2 AVX
---[Information] [Ср 13.06.18 13:08:18] x264 [info]: profile High, level 4.1
---[Information] [Ср 13.06.18 16:10:28] x264 [info]: frame I:1016 Avg QP:17.38 size:125871
---[Information] [Ср 13.06.18 16:10:28] x264 [info]: frame P:30465 Avg QP:18.65 size: 45064
---[Information] [Ср 13.06.18 16:10:28] x264 [info]: frame B:104125 Avg QP:20.61 size: 13057

---[Information] [Ср 13.06.18 16:10:28] x264 [info]: consecutive B-frames: 4.0% 3.3% 7.6% 7.6% 17.5% 49.6% 6.1% 1.4% 3.0%

Mediainfo:


General
Complete name :\Дьявольские врата_Devil's Gate.2017.BDRip.LQ.1080p.torrents43.comv
Format : Matroska
Format version : Version 4 / Version 2
File size : 2.92 GiB
Duration : 1 h 34 min
Overall bit rate : 4 432 kb/s
Movie name : Дьявольские врата_Devil's Gate.2017.BDRip.LQ.1080p.torrents43.com />Encoded date : UTC 2018-06-13 13:24:56
Writing application : mkvmerge v18.0.0 ('Apricity') 64-bit
Writing library : libebml v1.3.5 + libmatroska v1.4.8

Video
ID : 1
Format : AVC
Format/Info : Advanced Video Codec
Format profile : High@L4.1
Format settings : CABAC / 4 Ref Frames
Format settings, CABAC : Yes
Format settings, ReFrames : 4 frames
Codec ID : V_MPEG4/ISO/AVC
Duration : 1 h 34 min
Bit rate : 4 049 kb/s
Width : 1 920 pixels
Height : 802 pixels
Display aspect ratio : 2.40:1
Frame rate mode : Constant
Frame rate : 23.976 (24000/1001) FPS
Color space : YUV
Chroma subsampling : 4:2:0
Bit depth : 8 bits
Scan type : Progressive
Bits/(Pixel*Frame) : 0.110
Stream size : 2.66 GiB (91%)
Title : Дьявольские врата_Devil's Gate.2017.BDRip.LQ.1080p.torrents43.com />Writing library : x264 core 155 r2901 7d0ff22
Encoding settings : cabac=1 / ref=4 / deblock=1:-3:-3 / analyse=0x3:0x133 / me=umh / subme=9 / psy=1 / psy_rd=1.00:0.25 / mixed_ref=1 / me_range=24 / chroma_me=1 / trellis=2 / 8x8dct=1 / cqm=0 / deadzone=6,6 / fast_pskip=0 / chroma_qp_offset=-4 / threads=12 / lookahead_threads=2 / sliced_threads=0 / nr=0 / decimate=0 / interlaced=0 / bluray_compat=0 / constrained_intra=0 / bframes=8 / b_pyramid=2 / b_adapt=2 / b_bias=0 / direct=1 / weightb=1 / open_gop=0 / weightp=2 / keyint=250 / keyint_min=23 / scenecut=40 / intra_refresh=0 / rc_lookahead=40 / rc=2pass / mbtree=1 / bitrate=4049 / ratetol=1.0 / qcomp=0.60 / qpmin=0 / qpmax=69 / qpstep=4 / cplxblur=20.0 / qblur=0.5 / vbv_maxrate=50000 / vbv_bufsize=62500 / nal_hrd=none / filler=0 / ip_ratio=1.10 / aq=1:0.70
Language : English
Default : Yes
Forced : No

Audio
ID : 2
Format : AC-3
Format/Info : Audio Coding 3
Codec ID : A_AC3
Duration : 1 h 34 min
Bit rate mode : Constant
Bit rate : 384 kb/s
Channel(s) : 6 channels
Channel positions : Front: L C R, Side: L R, LFE
Sampling rate : 48.0 kHz
Frame rate : 31.250 FPS (1536 SPF)
Bit depth : 16 bits
Compression mode : Lossy
Stream size : 259 MiB (9%)
Title : MVO (Jaskier)
Language : Russian
Service kind : Complete Main
Default : Yes
Forced : No

Text
ID : 3
Format : UTF-8
Codec ID : S_TEXT/UTF8
Codec ID/Info : UTF-8 Plain Text
Duration : 1 h 25 min
Bit rate : 53 b/s
Count of elements : 861
Stream size : 33.6 KiB (0%)
Language : English
Default : No
Forced : No

Menu
00:00:00.000 : en:Chapter 01
00:07:25.653 : en:Chapter 02
00:16:18.727 : en:Chapter 03
00:22:51.661 : en:Chapter 04
00:29:32.771 : en:Chapter 05
00:35:39.762 : en:Chapter 06
00:43:16.927 : en:Chapter 07
00:50:21.184 : en:Chapter 08
00:57:24.941 : en:Chapter 09
01:09:07.601 : en:Chapter 10
01:16:25.122 : en:Chapter 11
01:25:19.989 : en:Chapter 12
01:34:14.273 : en:Chapter 13
Скриншоты:


Все одноименные релизы в Клубе

Смотреть Online

http://moonwalk.cc/video/ddb2207bb66b3bf4/iframe
Детали торрента:
Название:Дьявольские врата / Devil's Gate (2017) BDRip [H.264/1080p-LQ] [MVO]
Дата добавления:13 Июн 2018 16:39:18
Размер:2,92 GB
Раздают:1
Качают:11
Форум:Зарубежные Новинки (HD*Rip/LQ, DVDRip)

All rights reserved © 2015-2018