TORRENTS43.COM

Скачать Imagination - The Final Collection (2007) [FLAC|Lossless]<Disco>


Imagination - The Final Collection (2007)
Год: 2007
Жанр: Disco
Продолжительность: 01:17:32

Кодек: FLAC
Битрейт: Lossless
Тип раздачи: image+.cue

Треклист:
01. Just An Illusion (3:57)
02. So Good, So Right (4:45)
03. New Dimension (4:20)
04. Heart 'n' Soul (4:45)
05. Music And Lights (3:42)
06. Body Talk (3:34)
07. Flashback (4:28)
08. Changes (4:08)
09. Tell Me What You Want, My Love (5:23)
10. Looking At Midnight (3:53)
11. In And Out Of Love (4:04)
12. In The Heat Of The Night (3:55)
13. Shoo Be Doo Da Dabba Doobee (This Means War) (3:51)
14. Follow Me (3:32)
15. Sunshine (3:16)
16. So Good So Right (“Jl” Edit Re-Mix) (3:38)
17. Original Megamix (8:16)
18. Jolley & Swain - Soul Street (4:05)

Отчёт ЕАС

Код:
Exact Audio Copy V0.99 prebeta 4 from 23. January 2008

EAC extraction logfile from 20. December 2008, 11:07

Imagination / The Final Collection

Used drive  : PIONEER DVD-RW  DVR-112D   Adapter: 3  ID: 0

Read mode               : Secure
Utilize accurate stream : Yes
Defeat audio cache      : Yes
Make use of C2 pointers : No

Read offset correction                      : 48
Overread into Lead-In and Lead-Out          : No
Fill up missing offset samples with silence : Yes
Delete leading and trailing silent blocks   : No
Null samples used in CRC calculations       : Yes
Used interface                              : Installed external ASPI interface

Used output format              : User Defined Encoder
Selected bitrate                : 192 kBit/s
Quality                         : Low
Add ID3 tag                     : Yes
Command line compressor         : C:\Program Files\E A C Audio\Flac\flac.exe
Additional command line options : -V -8 -T "artist=%a" -T "title=%t" -T "album=%g" -T "date=%y" -T "tracknumber=%n" -T "genre=%m" %s

TOC of the extracted CD

     Track |   Start  |  Length  | Start sector | End sector
    ---------------------------------------------------------
        1  |  0:00.00 |  3:56.52 |         0    |    17751
        2  |  3:56.52 |  4:44.40 |     17752    |    39091
        3  |  8:41.17 |  4:19.73 |     39092    |    58589
        4  | 13:01.15 |  4:44.69 |     58590    |    79958
        5  | 17:46.09 |  3:42.28 |     79959    |    96636
        6  | 21:28.37 |  3:34.20 |     96637    |   112706
        7  | 25:02.57 |  4:28.18 |    112707    |   132824
        8  | 29:31.00 |  4:07.43 |    132825    |   151392
        9  | 33:38.43 |  5:22.47 |    151393    |   175589
       10  | 39:01.15 |  3:53.31 |    175590    |   193095
       11  | 42:54.46 |  4:04.12 |    193096    |   211407
       12  | 46:58.58 |  3:55.31 |    211408    |   229063
       13  | 50:54.14 |  3:50.43 |    229064    |   246356
       14  | 54:44.57 |  3:31.44 |    246357    |   262225
       15  | 58:16.26 |  3:16.06 |    262226    |   276931
       16  | 61:32.32 |  3:38.34 |    276932    |   293315
       17  | 65:10.66 |  8:15.51 |    293316    |   330491
       18  | 73:26.42 |  4:05.37 |    330492    |   348903

Range status and errors

Selected range

     Filename G:\lossless-room.nnm.ru\Imagination - The Final Collection\Imagination - The Final Collection\Imagination - The Final Collection.wav

     Peak level 100.0 %
     Range quality 100.0 %
     Test CRC 92221EC1
     Copy CRC 92221EC1
     Copy OK

No errors occurred

AccurateRip summary

Track  1  not present in database
Track  2  not present in database
Track  3  not present in database
Track  4  not present in database
Track  5  not present in database
Track  6  not present in database
Track  7  not present in database
Track  8  not present in database
Track  9  not present in database
Track 10  not present in database
Track 11  not present in database
Track 12  not present in database
Track 13  not present in database
Track 14  not present in database
Track 15  not present in database
Track 16  not present in database
Track 17  not present in database
Track 18  not present in database

None of the tracks are present in the AccurateRip database

End of status report

Отчёт auCDtect Task manager

Код:
-----------------------

DON'T MODIFY THIS FILE

-----------------------

PERFORMER: auCDtect Task Manager, ver. 1.6.0 RC1 build 1.6.0.1
Copyright (c) 2008-2010 y-soft. All rights reserved
http://y-soft.org

ANALYZER: auCDtect: CD records authenticity detector, version 0.8.2
Copyright (c) 2004 Oleg Berngardt. All rights reserved.
Copyright (c) 2004 Alexander Djourik. All rights reserved.

FILE: Imagination - The Final Collection.flac
  Size: 557555394 Hash: 6B63CD2D43A331517D173678FA68ADC7 Accuracy: -m0
  Conclusion: CDDA 100%
  Signature: 8B4FCCB1DC2CB2DD8CEC9B893F1F81F43EAC6E2C

Содержание индексной карты (.CUE)

Код:
REM GENRE Disco
REM DATE 2008
REM PLACE http://lossless-room.nnm.ru/
REM DISCID 01122C12
REM COMMENT "ExactAudioCopy v0.99pb4"
PERFORMER "Imagination"
TITLE "The Final Collection"
FILE "Imagination - The Final Collection.flac" WAVE
  TRACK 01 AUDIO
    TITLE "Just An Illusion"
    PERFORMER "Imagination"
    INDEX 01 00:00:00
  TRACK 02 AUDIO
    TITLE "So Good, So Right"
    PERFORMER "Imagination"
    INDEX 00 03:55:15
    INDEX 01 03:56:52
  TRACK 03 AUDIO
    TITLE "New Dimension"
    PERFORMER "Imagination"
    INDEX 00 08:39:55
    INDEX 01 08:41:17
  TRACK 04 AUDIO
    TITLE "Heart 'n' Soul"
    PERFORMER "Imagination"
    INDEX 00 12:59:53
    INDEX 01 13:01:15
  TRACK 05 AUDIO
    TITLE "Music And Lights"
    PERFORMER "Imagination"
    INDEX 01 17:46:09
  TRACK 06 AUDIO
    TITLE "Body Talk"
    PERFORMER "Imagination"
    INDEX 00 21:27:00
    INDEX 01 21:28:37
  TRACK 07 AUDIO
    TITLE "Flashback"
    PERFORMER "Imagination"
    INDEX 00 25:01:20
    INDEX 01 25:02:57
  TRACK 08 AUDIO
    TITLE "Changes"
    PERFORMER "Imagination"
    INDEX 00 29:29:38
    INDEX 01 29:31:00
  TRACK 09 AUDIO
    TITLE "Tell Me What You Want, My Love"
    PERFORMER "Imagination"
    INDEX 00 33:37:06
    INDEX 01 33:38:43
  TRACK 10 AUDIO
    TITLE "Looking At Midnight"
    PERFORMER "Imagination"
    INDEX 00 38:59:53
    INDEX 01 39:01:15
  TRACK 11 AUDIO
    TITLE "In And Out Of Love"
    PERFORMER "Imagination"
    INDEX 00 42:53:09
    INDEX 01 42:54:46
  TRACK 12 AUDIO
    TITLE "In The Heat Of The Night"
    PERFORMER "Imagination"
    INDEX 00 46:57:21
    INDEX 01 46:58:58
  TRACK 13 AUDIO
    TITLE "Shoo Be Doo Da Dabba Doobee (This Means War)"
    PERFORMER "Imagination"
    INDEX 00 50:52:52
    INDEX 01 50:54:14
  TRACK 14 AUDIO
    TITLE "Follow Me"
    PERFORMER "Imagination"
    INDEX 00 54:43:20
    INDEX 01 54:44:57
  TRACK 15 AUDIO
    TITLE "Sunshine"
    PERFORMER "Imagination"
    INDEX 00 58:14:64
    INDEX 01 58:16:26
  TRACK 16 AUDIO
    TITLE "So Good So Right (“Jl” Edit Re-Mix)"
    PERFORMER "Imagination"
    INDEX 00 61:30:70
    INDEX 01 61:32:32
  TRACK 17 AUDIO
    TITLE "Original Megamix"
    PERFORMER "Imagination"
    INDEX 00 65:09:29
    INDEX 01 65:10:66
  TRACK 18 AUDIO
    TITLE "Jolley & Swain - Soul Street"
    PERFORMER "Imagination"
    INDEX 00 73:25:05
    INDEX 01 73:26:42
Детали торрента:
Название:Imagination - The Final Collection (2007) [FLAC|Lossless]<Disco>
Дата добавления:02 Май 2009 21:25:10
Размер:532 MB
Раздают:
Качают:0
Форум:Disco, Italo-Disco, Euro-Disco, Hi-NRG (Lossless)

All rights reserved © 2015-2018