TORRENTS43.COM

Скачать Pink Floyd - The Dark Side of the Moon (2003) DVDRip/En


Pink Floyd - The Dark Side of the Moon (2003) DVDRip/En
Жанр: Документальное музыкальное видео
Язык: En
Описание:
Это история, рассказаная изнутри создателями шедевра. The Dark Side Of The Moon (Темная сторона Луны) является альбомом, который резко трансформировал Pink Floyd из любимчиков арт-хаусной сцены в глобальных стадионных суперзвёзд.
До 1973 года Pink Floyd поддерживали неустанный концертный график, и когда они подошли к записи нового альбома у них уже была основа для того, что должно было называться The Dark Side Of The Moon. Это был первый альбом, где Роджер Уотерс (Roger Waters) был автором всех стихов, а также базовой "концепции". С безвременными качествами производства и музыкальности, соединённых с гипнотическим воздействием его центральных тем - холодность, паранойя, безумие, война и смерть, The Dark Side Of The Moon суждено было стать доминирующим альбомом 70-х и 80-х годов (с рекордным количеством недель подряд в чартах). Тридцать лет спустя он все еще находит отклик у нового поколения любителей музыки.
В этом фильме трэк за трэком отслеживается процесс создания альбома 1973-го года. Все четверо участников группы, в то время Роджер Уотерс (Roger Waters), Дэвид Гилмоур (David Gilmour), Ник Мэйсон (Nick Mason) и Ричард Райт (Richard Wright) дают эксклюзивные интервью. Роджер, Дэвид и Ричард играют песни и демонстрируют темы из альбома. Алан Парсонс (Alan Parsons) (инженер звукозаписи) знакомит с мультитрэковыми плёнками, давая уникальную возможность взглянуть на музыкальное полотно записи и всё это проиллюстрировано архивными кадрами.
The Dark Side Of The Moon в комбинации с великолепными песнями, изобретательными эффектами и одной из самых узнаваемых обложек,из когда-либо созданных, впечатался в массовое подсознание и стал орентиром в истории Рока, по-настоящему Классическим Альбомом.
Режиссер: Matthew Longfellow
Актеры: Роджер Уотерс (Roger Waters)
Дэвид Гилмор (David Gilmour)
Ричард Райт (Richard Wright)
Ник Мэйсон (Nick Mason)
Сторм Торгерсен (Storm Thorgersen) создатель обложки для The Dark Side Of The Moon
и другие...
Продолжительность: 00:49:00
Перевод: Без перевода

Видео: DivX 4, 1766 kbps, 640х352
Аудио: AC-3 2.0, 224 kbps

MediaInfo

Код:

      Полное имя                               : K:\UpRG-Концерты\Pink.Floyd.The.Dark.Side.Of.The.Moon.2003.Dvdrip.Xvid.Ac3-Tp.[www.osiolek.com].avi
Формат                                   : AVI
Формат/Информация                        : Audio Video Interleave
Размер файла                             : 701 Мбайт
Продолжительность                        : 49 м.
Общий поток                              : 1999 Кбит/сек
Программа кодирования                    : VirtualDubMod 1.5.4.1 (build 2066/release)
Библиотека кодирования                   : VirtualDubMod build 2066/release

Видео
Идентификатор                            : 0
Формат                                   : MPEG-4 Visual
Профиль формата                          : Simple@L3
Параметр BVOP формата                    : Нет
Параметр QPel формата                    : Нет
Параметр GMC формата                     : Без точки перехода
Параметр матрицы формата                 : Default (H.263)
Идентификатор кодека                     : DIVX
Идентификатор кодека/Информация          : Project Mayo
Идентификатор кодека/Подсказка           : DivX 4
Продолжительность                        : 49 м.
Битрейт                                  : 1766 Кбит/сек
Ширина                                   : 640 пикселей
Высота                                   : 352 пикселя
Соотношение сторон                       : 16:9
Частота кадров                           : 23,976 кадра/сек
Цветовое пространство                    : YUV
Субдискретизация насыщенности            : 4:2:0
Битовая глубина                          : 8 бит
Тип развёртки                            : Прогрессивная
Метод сжатия                             : С потерями
Бит/(Пиксели*Кадры)                      : 0.327
Размер потока                            : 619 Мбайт (88%)
Библиотека кодирования                   : XviD 0.0.09 (UTC 2003-03-25)

Аудио
Идентификатор                            : 1
Формат                                   : AC-3
Формат/Информация                        : Audio Coding 3
Расширение режима                        : CM (complete main)
Параметр Endianness формата              : Big
Идентификатор кодека                     : 2000
Продолжительность                        : 49 м.
Вид битрейта                             : Постоянный
Битрейт                                  : 224 Кбит/сек
Каналы                                   : 2 канала
Расположение каналов                     : Front: L R
Частота                                  : 48,0 КГц
Битовая глубина                          : 16 бит
Метод сжатия                             : С потерями
Размер потока                            : 78,5 Мбайт (11%)
Выравнивание                             : Разделение по промежуткам
Продолжительность промежутка             : 42  мс. (1,00 видеокадр)
Время предзагрузки промежутка            : 500  мс.           
Скриншоты:

Дополнительно

This is the story, told from the inside by the participants of the creation of a masterpiece. The Dark Side of the Moon is the album that dramatically transformed Pink Floyd from art house favorites to global stadium superstars.
Prior to 1973, Pink Floyd maintained a relentless gigging schedule and by the time they came to record a new album had already created the basis for what would become The Dark Side record. It would be the first album where Roger Waters would supply all the lyrics around the 'concept'. With the timeless qualities of its production and musicality, allied to the hypnotic evocation of its central themes-alienation, paranoia, madness, war and death, "Dark Side Of the Moon" would become the album that would dominate the 70's and 80's (with a record number of consecutive weeks in the charts). Thirty years later it still strikes a chord with a new generation of music lovers.
This program takes an in-depth look at the making of the 1973 album. All four members of the band Roger Waters, David Gilmour, Nick Mason and Richard Wright are featured in exclusive interviews. Roger, David and Richard play songs and demonstrate themes from the album. Alan Parsons (the original engineer) takes us through the multi track tapes giving a unique insight into the musical fabric of the record and the program is illustrated throughout the archive footage.
"Dark Side Of the Moon" with its combination of great songs, inventive effects and one of the best known sleeves ever, tapped into the world's collective subconscious and became a landmark in Rock history and a truly Classic Album.
Featuring Cuts From:
- Breathe
- On the Run
- Brain Damage
- The Great Gig In the Sky
- Time
- Money
- Eclipse
- Us and Them

Plus exclusive individual performances by members of the group and interviews with: David Gilmour, Nick Mason, Roger Waters, Richard Wright

Подробное описание на русском: http://ru.wikipedia.org/wiki/The_Dark_Side_of_the_Moon
[ added by nphected ]
Реставрация sklad600
Детали торрента:
Название:Pink Floyd - The Dark Side of the Moon (2003) DVDRip/En
Дата добавления:19 Май 2007 16:19:47
Размер:701 MB
Раздают:1
Качают:0
Форум:Концерты

All rights reserved © 2015-2018