TORRENTS43.COM

Скачать Hazell Dean - Heart First (1984) [APE|Lossless]<Dance, Hi-NRG>


Hazell Dean - Heart First (1984)
Год: 1984
Жанр: Dance, Hi-NRG
Продолжительность: 00:36:44
Формат: APE (image+.cue)
Битрейт: Lossless

Треклист:
1. Back In My Arms (Once Again) (3:10)
2. Searchin' (3:38)
3. Break The Rules (3:23)
4. Whatever I Do (Wherever I Go) (3:42)
5. You're Too Good To Be True (4:20)
6. Back In My Arms (Once Again) (Reprise) (0:55)
7. Heart First (3:22)
8. No Fool (For Love) (3:35)
9. Harmony (3:51)
10. Devil In You (3:10)
11. Everything I Need (3:31)

Дополнительная информация:

Спасибо за редкий релиз - Gruss. Сканы обложек и диска внутри.

Отчёт ЕАС:

Код:

Exact Audio Copy V0.99 prebeta 3 from 28. July 2007

EAC extraction logfile from 17. May 2008, 22:35

Hazell Dean / Heart First

Used drive  : HL-DT-STDVDRAM GSA-4167B   Adapter: 1  ID: 1

Read mode               : Secure
Utilize accurate stream : Yes
Defeat audio cache      : Yes
Make use of C2 pointers : No

Read offset correction                      : 667
Overread into Lead-In and Lead-Out          : No
Fill up missing offset samples with silence : Yes
Delete leading and trailing silent blocks   : No
Null samples used in CRC calculations       : Yes
Used interface                              : Installed external ASPI interface

Used output format : Internal WAV Routines
Sample format      : 44.100 Hz; 16 Bit; Stereo

TOC of the extracted CD

     Track |   Start  |  Length  | Start sector | End sector
    ---------------------------------------------------------
        1  |  0:00.00 |  3:12.00 |         0    |    14399
        2  |  3:12.00 |  3:41.00 |     14400    |    30974
        3  |  6:53.00 |  3:26.00 |     30975    |    46424
        4  | 10:19.00 |  3:42.37 |     46425    |    63111
        5  | 14:01.37 |  4:13.38 |     63112    |    82124
        6  | 18:15.00 |  1:00.00 |     82125    |    86624
        7  | 19:15.00 |  3:19.00 |     86625    |   101549
        8  | 22:34.00 |  3:35.00 |    101550    |   117674
        9  | 26:09.00 |  3:55.00 |    117675    |   135299
       10  | 30:04.00 |  3:08.00 |    135300    |   149399
       11  | 33:12.00 |  3:32.00 |    149400    |   165299

Range status and errors

Selected range

     Filename F:\Audio\EAC\Hazell Dean - Heart First.wav

     Peak level 100.0 %
     Range quality 100.0 %
     Copy CRC 261ED982
     Copy OK

No errors occurred

AccurateRip summary

Track  1  accurately ripped (confidence 1)  [A36BE7B7]
Track  2  accurately ripped (confidence 1)  [FC290DAA]
Track  3  accurately ripped (confidence 1)  [B41B288A]
Track  4  accurately ripped (confidence 1)  [FDE1DBAC]
Track  5  accurately ripped (confidence 1)  [07ED66E4]
Track  6  accurately ripped (confidence 1)  [6B99D081]
Track  7  accurately ripped (confidence 1)  [EB1CE7A2]
Track  8  accurately ripped (confidence 1)  [72D0D0B0]
Track  9  accurately ripped (confidence 1)  [CFFD34E0]
Track 10  accurately ripped (confidence 1)  [BB4B5460]
Track 11  accurately ripped (confidence 1)  [978932E3]

All tracks accurately ripped

End of status report

Отчёт Audiochecker:

Код:

AUDIOCHECKER v2.0 beta (build 457) - by Dester - opdester@freemail.hu
~~~~~~~~~~~~~~~~~~~~~~~~~~~~~~~~~~

Started at: пятница, 01. 01. 2010. - 12:25.49
1 file found

1 -===- I:\torrents43.com\Hazell Dean - Heart First (1984)\Hazell Dean - Heart First.ape
  Extracted successfully
  Conclusion: this track is CDDA with probability 100%
  Tempfile successfully deleted.

Finished at: пятница, 01. 01. 2010. - 12:31.14 (operation time: 0:05.24)
Детали торрента:
Название:Hazell Dean - Heart First (1984) [APE|Lossless]<Dance, Hi-NRG>
Дата добавления:01 Янв 2010 12:58:50
Размер:238 MB
Раздают:
Качают:0
Форум:Архив Музыки

All rights reserved © 2015-2018