TORRENTS43.COM

Скачать Haibane Renmei / Charcoal Feathers Federation / Союз Серокрылых [2002, 13] 4xDVD9


Haibane Renmei / Charcoal Feathers Federation / Союз Серокрылых


Жанр: драма, мистика, повседневность
Тип: TV-сериал
Количество серий: 13
Продолжительность: 325 минут (13 серий по 25 мин.)
Дата премьеры / период выхода: c 10.10.2002 по 19.12.2002
Производство/студия: Fuji Television, Aureole Secret Factory
Автор оригинала: Абэ Ёситоси / 安倍吉俊
Режиссер: Токоро Томокадзу / ところともかず

Битрейт видео: 7800 - 9701 kb/s
Размер кадра: 853x480
Качество видео: 4xDVD9
Аудио:
1. Русский дубляж DD 5.1, перевод надписей, русские титры в заставках.
2. Японский Linear PCM 2.0 Полные субтитры, японские титры в заставках.
Звук: Две дорожки: японская и русская

MediaInfo

General
Complete name : D:\Видео\Anime\Haibane Renmei\DVD_1\VIDEO_TS\VTS_01_1.VOB
Format : MPEG-PS
File size : 1 024 MiB
Duration : 11mn 45s
Overall bit rate : 12.2 Mbps

Video
ID : 224 (0xE0)
Format : MPEG Video
Format version : Version 2
Format profile : Main@Main
Format settings, Matrix : Default
Duration : 11mn 45s
Bit rate mode : Variable
Bit rate : 9 701 Kbps
Nominal bit rate : 7 800 Kbps
Width : 720 pixels
Height : 480 pixels
Display aspect ratio : 16/9
Frame rate : 29.970 fps
Standard : NTSC
Colorimetry : 4:2:0
Scan type : Progressive
Bits/(Pixel*Frame) : 0.937
Stream size : 816 MiB (80%)

Audio #1
ID : 128 (0x80)
Format : AC-3
Format/Info : Audio Coding 3
Duration : 11mn 45s
Bit rate mode : Constant
Bit rate : 448 Kbps
Channel(s) : 6 channels
Channel positions : Front: L C R, Surround: L R, LFE
Sampling rate : 48.0 KHz
Stream size : 37.7 MiB (4%)

Audio #2
ID : 161 (0xA1)
Format : PCM
Format settings, Endianness : Big
Format settings, Sign : Signed
Duration : 11mn 45s
Bit rate mode : Constant
Bit rate : 1 536 Kbps
Channel(s) : 2 channels
Channel positions : Front: L R
Sampling rate : 48.0 KHz
Stream size : 129 MiB (13%)

Text #1
ID : 32 (0x20)
Format : RLE
Format/Info : Run-length encoding

Text #2
ID : 33 (0x21)
Format : RLE
Format/Info : Run-length encoding

Menu
Format : DVD-Video

Эпизоды:

· Кокон — Сон о падении с неба — Старый Дом
· Город и стена — Плащи — Союз Серокрылых
· Храм — Переговорщик — Булочки
· День мусора — Часовая башня — Птицы, которые летают за стену
· Библиотека — Заброшенная фабрика — Рождение мира
· Конец лета — Дождь — Утрата
· Шрам — Болезнь — Приход зимы
· Птица
· Колодец — Возвращение к жизни — Загадка
· Курамори — Серокрылые с заброшенной фабрики — Работа Ракки
· Разлука — Тьма в сердце — То, что ничем не заменишь
· Орешки-колокольчики — Фестиваль проводов года — Примирение
· Мир Рэки — Молитва — Последняя глава

Дополнительные материалы

· открытки;
· карточки персонажей;
· видеоинтервью с авторами;
· фильм о создании русского дубляжа;
· заставки без титров;
· альтернативный вариант финальных титров;
· анонсы.
Описание:
Сон о падении с небес. Таинственный город Гли, полностью окруженный высокими стенами. Загадочные люди с крыльями на спине и светящимися нимбами над головой, называющие себя Серокрылыми. Воспоминания о прошлом и о собственном имени не яснее ощущения от забытого сна… Радость жизни и горечь смерти. Звонкий смех и слезы отчаяния. Грех и его искупление. За мистическим фасадом истории, за размеренным повествованием о быте скрыты глубокие идеи о жизни и поиске ее смысла.

Дополнительная информация:
О создателях:
Автор оригинальной серии сюжетных зарисовок, сценарист и художник Ёситоси АБэ («Эксперименты Лэйн») совместно с режиссером Токоро Томокадзу (NieA_7, Hellsing OVA) создал одно из самых необычных произведений в истории японской анимации, воздействие которого многократно усиливается проникновенной музыкой Ко Oтани, высоко оцененной как зрителями, так и музыкальными критиками.

Ссылки:
http://www.world-art.ru/animation/animation.php?id=42
http://store.reanimedia.ru/catalog/product/1123.html

Скриншоты:


Смотреть Online

http://moonwalk.cc/serial/c32caedcc88e4d00e919eb37de387e38/iframe
Детали торрента:
Название:Haibane Renmei / Charcoal Feathers Federation / Союз Серокрылых [2002, 13] 4xDVD9
Дата добавления:26 Янв 2010 14:27:35
Размер:27,1 GB
Раздают:4
Качают:0
Форум:Аниме DVD

All rights reserved © 2015-2018