TORRENTS43.COM

Скачать Sarah Brightman - Sarah Brightman (2CD) (2009) [FLAC|Lossless]<Рop>


Sarah Brightman - Sarah Brightman (2009)


Год: 2009
Жанр: Рop
Продолжительность: 02:39:00

Кодек: FLAC
Тип рипа: image + .cue
Битрейт: Lossless

CD1:

Трек лист:
01. Anytime,Anywhere [03:19]
02. The Phantom Of The Opera [04:20]
03. Harem [05:46]
04. Memory [03:57]
05. Hijo De La Luna [04:29]
06. How Can Heaven Love Me [03:47]
07. This Love [06:16]
08. Love Changes Everything [03:33]
09. So Many Things [02:58]
10. What A Wonderfull World [03:40]
11. Something In The Air [04:22]
12. Eden [03:58]
13. Deliver Me [04:00]
14. Il Mio Cuore Va [04:32]
15. Everything Alright [04:26]
16. Time To Say Goodbye [04:08]
17. Scene D'Amour [03:22]
18. The War Is Over [05:16]
19. Surrender [03:06]

Продолжительность: 01:19:00

Отчёт ЕАС:

Код:
Exact Audio Copy V0.99 prebeta 5 from 4. May 2009

Отчёт EAC об извлечении, выполненном 1. сентября 2009, 19:45

Sarah Brightman / Sarah Brightman (2CD Edition) (CD1)

Дисковод: SlimtypeDVD A  DS8A1P   Adapter: 0  ID: 0

Режим чтения                 : Достоверность
Использование точного потока : Да
Отключение кэша аудио        : Да
Использование указателей C2  : Нет

Коррекция смещения при чтении                     : 594
Способность читать области Lead-in и Lead-out     : Нет
Заполнение пропущенных сэмплов тишиной            : Да
Удаление блоков с тишиной в начале и конце        : Нет
При вычислениях CRC использовались нулевые сэмплы : Да
Интерфейс                                         : Установленный внешний ASPI-интерфейс

Выходной формат : Внутренние WAV-операции
Формат сэмплов  : 44.100 Гц; 16 бит; стерео

TOC извлечённого CD

     Трек |   Старт  | Длительность | Начальный сектор | Конечный сектор
    ---------------------------------------------------------------------
       1  |  0:00.00 |    3:21.32   |           0      |      15106
       2  |  3:21.32 |    4:20.56   |       15107      |      34662
       3  |  7:42.13 |    5:46.31   |       34663      |      60643
       4  | 13:28.44 |    3:57.67   |       60644      |      78485
       5  | 17:26.36 |    4:29.36   |       78486      |      98696
       6  | 21:55.72 |    3:47.30   |       98697      |     115751
       7  | 25:43.27 |    6:16.62   |      115752      |     144013
       8  | 32:00.14 |    3:33.16   |      144014      |     160004
       9  | 35:33.30 |    2:58.53   |      160005      |     173407
      10  | 38:32.08 |    3:40.23   |      173408      |     189930
      11  | 42:12.31 |    4:22.37   |      189931      |     209617
      12  | 46:34.68 |    3:58.63   |      209618      |     227530
      13  | 50:33.56 |    4:00.20   |      227531      |     245550
      14  | 54:34.01 |    4:32.10   |      245551      |     265960
      15  | 59:06.11 |    4:26.23   |      265961      |     285933
      16  | 63:32.34 |    4:08.01   |      285934      |     304534
      17  | 67:40.35 |    3:22.16   |      304535      |     319700
      18  | 71:02.51 |    5:16.10   |      319701      |     343410
      19  | 76:18.61 |    3:04.01   |      343411      |     357211

Характеристики диапазона извлечения и сообщения об ошибках

Выбранный диапазон

     Имя файла D:\Sarah Brightman - Sarah Brightman (2CD Edition) (CD1).wav

     Пиковый уровень 100.0 %
     Качество диапазона 99.9 %
     CRC копии 6CC2DCBC
     Копирование... OK

Ошибок не произошло

Конец отчёта

Отчёт Audiochecker:

Код:
AUDIOCHECKER v2.0 beta (build 457) - by Dester - opdester@freemail.hu
~~~~~~~~~~~~~~~~~~~~~~~~~~~~~~~~~~
-=== НЕ РЕДАКТИРУЙТЕ ЭТОТ ФАЙЛ! ===-

Путь: ...\CD 1

1 -=- Sarah Brightman - Sarah Brightman (2CD Edition) (CD1).flac -=- CDDA (100%)

17952181

CD2:

Трек лист:
01. I Will Be With You (With Paul Stanley) [04:30]
02. What You Never Know [03:25]
03. Whiter Shade Of Pale [03:39]
04. Free [03:46]
05. It's A Beautiful Day [03:58]
06. Dust In The Wind [03:43]
07. Scarborough Fair [04:10]
08. The Second Element [04:42]
09. Who Wants To Live Forever [03:56]
10. En Aranjuez Con Tu Amor [03:51]
11. Just Show Me How To Love You (With Jose Cura) [03:59]
12. Canto Della Terra (With Andrea Bocelli) [04:01]
13. Tu Quires Volver [03:49]
14. Sarai Qui (With Alessandro Safina) [03:58]
15. Stranger In Paradise [04:30]
16. Don't Cry For Me Argentina [05:55]
17. Love Changes Everything [03:34]
18. Amigos Para Siempre [04:37]
19. Piano [05:10]

Продолжительность: 01:19:00

Отчёт ЕАС:

Код:
Exact Audio Copy V0.99 prebeta 5 from 4. May 2009

Отчёт EAC об извлечении, выполненном 1. сентября 2009, 20:47

Sarah Brightman / Sarah Brightman (2CD Edition) (CD2)

Дисковод: SlimtypeDVD A  DS8A1P   Adapter: 0  ID: 0

Режим чтения                 : Достоверность
Использование точного потока : Да
Отключение кэша аудио        : Да
Использование указателей C2  : Нет

Коррекция смещения при чтении                     : 594
Способность читать области Lead-in и Lead-out     : Нет
Заполнение пропущенных сэмплов тишиной            : Да
Удаление блоков с тишиной в начале и конце        : Нет
При вычислениях CRC использовались нулевые сэмплы : Да
Интерфейс                                         : Установленный внешний ASPI-интерфейс

Выходной формат : Внутренние WAV-операции
Формат сэмплов  : 44.100 Гц; 16 бит; стерео

TOC извлечённого CD

     Трек |   Старт  | Длительность | Начальный сектор | Конечный сектор
    ---------------------------------------------------------------------
       1  |  0:00.00 |    4:32.56   |           0      |      20455
       2  |  4:32.56 |    3:25.73   |       20456      |      35903
       3  |  7:58.54 |    3:39.36   |       35904      |      52364
       4  | 11:38.15 |    3:46.59   |       52365      |      69373
       5  | 15:24.74 |    3:58.13   |       69374      |      87236
       6  | 19:23.12 |    3:43.70   |       87237      |     104031
       7  | 23:07.07 |    4:10.08   |      104032      |     122789
       8  | 27:17.15 |    4:42.64   |      122790      |     144003
       9  | 32:00.04 |    3:56.37   |      144004      |     161740
      10  | 35:56.41 |    3:51.44   |      161741      |     179109
      11  | 39:48.10 |    3:59.69   |      179110      |     197103
      12  | 43:48.04 |    4:01.07   |      197104      |     215185
      13  | 47:49.11 |    3:49.46   |      215186      |     232406
      14  | 51:38.57 |    3:58.34   |      232407      |     250290
      15  | 55:37.16 |    4:30.23   |      250291      |     270563
      16  | 60:07.39 |    5:55.18   |      270564      |     297206
      17  | 66:02.57 |    3:34.09   |      297207      |     313265
      18  | 69:36.66 |    4:37.07   |      313266      |     334047
      19  | 74:13.73 |    5:08.70   |      334048      |     357217

Характеристики диапазона извлечения и сообщения об ошибках

Выбранный диапазон

     Имя файла D:\Sarah Brightman - Sarah Brightman (2CD Edition) (CD2).wav

     Пиковый уровень 100.0 %
     Качество диапазона 100.0 %
     CRC копии 8004B4CA
     Копирование... OK

Ошибок не произошло

Конец отчёта

Отчёт Audiochecker:

Код:
AUDIOCHECKER v2.0 beta (build 457) - by Dester - opdester@freemail.hu
~~~~~~~~~~~~~~~~~~~~~~~~~~~~~~~~~~
-=== НЕ РЕДАКТИРУЙТЕ ЭТОТ ФАЙЛ! ===-

Путь: ...\CD 2

1 -=- Sarah Brightman - Sarah Brightman (2CD Edition) (CD2).flac -=- MPEG (95%)

94961332



Поглощение/вытеснение
Только с согласия релизера

DesideriuM

Реставрация релиза: Pashketan
Детали торрента:
Название:Sarah Brightman - Sarah Brightman (2CD) (2009) [FLAC|Lossless]<Рop>
Дата добавления:25 Мар 2010 08:02:49
Размер:987 MB
Раздают:
Качают:0
Форум:Зарубежная поп-музыка (Lossless)

All rights reserved © 2015-2018