TORRENTS43.COM

Скачать Nicolo Paganini - Diabolus in Musica - Accardo interpreta Paganini (1996) [APE|Lossless]<Classical>


Nicolo Paganini - Diabolus in Musica - Accardo interpreta Paganini (1996)
Год: 1996
Жанр: Classical
Продолжительность: 01:11:48

Кодек: APE (+cue)
Битрейт: Lossless
Тип битрейта: VBR

Композитор: Nicolo Paganini (1782 - 1840)
Исполнитель: London Philharmonic Orchestra
Дирижер: Charles Dutoit
Солист: Salvatore Accardo - Violino

Трек лист:

01. 'La Risata del Diavolo' - Tema 00:34
02. 'La Campanella' - Concerto per violino e orchestra in si minore No.2 - III. Rondo' 09:02
03. Capriccio in la minore No.5 - Agitato 02:21
04. Adagio flebile con sentimento 06:50
05. Concerto per violino e orchestra in re minore No.4 - III. Rondo' galante, Andantino gaio 11:13
06. Introduzione e variazioni su 'God Save the King' Op.9 06:48
07. Capriccio in la minore No.24 - Tema, Quasi presto, Variazioni, Finale 04:30
08. Concerto per violino e orchestra in mi Maggiore No.3 - Polacca, Andantino vivace 11:37
09. Capriccio in mi Maggiore No.1 - Andante 01:51
10. Concerto per violino e orchestra in re Maggiore No.1 Op.6 - III. Rondo', Allegro spirituoso 09:47
11. Capriccio in si bemolle Maggiore No.13 - Allegro 02:04
12. Sonata Moto Perpetuo - Allegro vivace 03:11

Отчёт ЕАС:

Exact Audio Copy V0.99 prebeta 4 from 23. January 2008

EAC extraction logfile from

Nicolo' Paganini / Diabolus in Musica - Accardo interpreta Paganini

Used drive : Adapter: 0 ID: 0

Read mode : Secure
Utilize accurate stream : Yes
Defeat audio cache : Yes
Make use of C2 pointers : No

Read offset correction : 48
Overread into Lead-In and Lead-Out : No
Fill up missing offset samples with silence : Yes
Delete leading and trailing silent blocks : No
Null samples used in CRC calculations : Yes
Used interface : Native Win32 interface for Win NT & 2000

Used output format : Monkey's Audio Lossless Encoder
Selected bitrate : Normal Lossless Compression
Quality : High
Add ID3 tag : Yes
Command line compressor : C:\Program Files\Monkey's Audio\MAC.exe
Additional command line options : -c2000 -v

TOC of the extracted CD

Track | Start | Length | Start sector | End sector
---------------------------------------------------------
1 | 0:00.00 | 0:34.32 | 0 | 2581
2 | 0:34.32 | 9:02.00 | 2582 | 43231
3 | 9:36.32 | 2:21.00 | 43232 | 53806
4 | 11:57.32 | 6:50.00 | 53807 | 84556
5 | 18:47.32 | 11:13.00 | 84557 | 135031
6 | 30:00.32 | 6:48.00 | 135032 | 165631
7 | 36:48.32 | 4:30.00 | 165632 | 185881
8 | 41:18.32 | 11:37.00 | 185882 | 238156
9 | 52:55.32 | 1:51.00 | 238157 | 246481
10 | 54:46.32 | 9:47.00 | 246482 | 290506
11 | 64:33.32 | 2:04.00 | 290507 | 299806
12 | 66:37.32 | 3:11.00 | 299807 | 314131

Range status and errors

Selected range

Filename \Nicolo' Paganini - Diabolus in Musica - Accardo interpreta Paganini.wav

Peak level 99.9 %
Range quality 100.0 %
Copy CRC 61B17A39
Copy OK

No errors occurred

End of status report

Отчёт Audiochecker:

AUDIOCHECKER v2.0 beta (build 457) - by Dester - opdester@freemail.hu
~~~~~~~~~~~~~~~~~~~~~~~~~~~~~~~~~~
-=== НЕ РЕДАКТИРУЙТЕ ЭТОТ ФАЙЛ! ===-

Путь: ...\Paganini - Accardo - Diabolus in Musica

01 -=- Nicolo' Paganini - Diabolus in Musica - Accardo interpreta Paganini.ape -=- CDDA (100%)

75684676
Детали торрента:
Название:Nicolo Paganini - Diabolus in Musica - Accardo interpreta Paganini (1996) [APE|Lossless]<Classical>
Дата добавления:17 Апр 2010 19:33:24
Размер:311 MB
Раздают:1
Качают:0
Форум:Оркестровая (Lossless)

All rights reserved © 2015-2018