TORRENTS43.COM

Скачать King Diamond - Дискография (1986 - 2007) [FLAC|Lossless]<Heavy Metal>


King Diamond - Дискография (1986 - 2007)
Год: 1986 - 2007
Жанр: Heavy Metal
Продолжительность: 12:24:59

Кодек: FLAC
Битрейт: Lossless
исключительно для ознакомления
На русском языке



Ссылка в тему

1986 - Fatal Portrait

Продолжительность: 00:41:54

Треклист:

01. The Candle (6:40)
02. The Jonah (5:16)
03. The Portrait (5:08)
04. Dressed In White (3:08)
05. Charon (4:16)
06. Lurking In The Dark (3:35)
07. Halloween (4:13)
08. Voices From The Past (1:31)
09. Haunted (3:54)
10. The Lake (4:13)

Лог EAC

Код:
EAC extraction logfile from 8. January 2008, 20:12 for CD
King Diamond / Fatal Portrait

Used drive  : PLEXTOR CD-R   PX-230A   Adapter: 0  ID: 1
Read mode   : Secure with NO C2, accurate stream, disable cache
Read offset correction : 738
Overread into Lead-In and Lead-Out : No

Used output format : C:\Programmi\Exact Audio Copy\MAC.EXE   (Monkey's Audio Lossless Encoder)
                     High Lossless Compression

Other options      :
    Fill up missing offset samples with silence : Yes
    Delete leading and trailing silent blocks : No
    Native Win32 interface for Win NT & 2000

Range status and errors
Selected range
     Filename C:\Documents and Settings\oem\Documenti\Musica\King Diamond - Fatal Portrait\King Diamond - Fatal Portrait.wav.wav

     Peak level 100.0 %
     Range quality 100.0 %
     CRC 828D5E31
     Copy OK

No errors occured

End of status report

Лог Audiochecker

Код:
AUDIOCHECKER v2.0 beta (build 457) - by Dester - opdester@freemail.hu
~~~~~~~~~~~~~~~~~~~~~~~~~~~~~~~~~~
-=== DO NOT EDIT THIS FILE! ===-

Path: ...\1986 - Fatal Portrait

01 -=- King Diamond - Fatal Portrait.flac -=- CDDA (100%)

263716340

1987 - Abigail

Продолжительность: 00:40:20

Треклист:

01. Funeral (1:31)
02. Arrival (5:27)
03. A Mansion in Darkness (4:34)
04. The Family Ghost (4:06)
05. The 7th Day of July 1777 (4:50)
06. Omens (3:57)
07. The Possession (3:26)
08. Abigail (4:51)
09. Black Horsemen (7:39)

Лог EAC

Код:
EAC extraction logfile from 8. January 2008, 20:19 for CD
King Diamond / Abigail

Used drive  : PLEXTOR CD-R   PX-230A   Adapter: 0  ID: 1
Read mode   : Secure with NO C2, accurate stream, disable cache
Read offset correction : 738
Overread into Lead-In and Lead-Out : No

Used output format : C:\Programmi\Exact Audio Copy\MAC.EXE   (Monkey's Audio Lossless Encoder)
                     High Lossless Compression

Other options      :
    Fill up missing offset samples with silence : Yes
    Delete leading and trailing silent blocks : No
    Native Win32 interface for Win NT & 2000

Range status and errors
Selected range
     Filename C:\Documents and Settings\oem\Documenti\Musica\King Diamond - Abigail\King Diamond - Abigail.wav.wav

     Peak level 96.5 %
     Range quality 100.0 %
     CRC 920BE6B9
     Copy OK

No errors occured

End of status report

Лог Audiochecker

Код:
AUDIOCHECKER v2.0 beta (build 457) - by Dester - opdester@freemail.hu
~~~~~~~~~~~~~~~~~~~~~~~~~~~~~~~~~~
-=== DO NOT EDIT THIS FILE! ===-

Path: ...\1987 - Abigail

01 -=- King Diamond - Abigail.flac -=- MPEG (95%)

223029540

1988 - Them

Продолжительность: 00:43:19

Треклист:

01. Out From The Asylum (1:45)
02. Welcome Home (4:36)
03. The Invisible Guests (5:04)
04. Tea (5:15)
05. Mother's Getting Weaker (4:02)
06. Bye, Bye, Missy (5:08)
07. A Broken Spell (4:08)
08. The Accusation Chair (4:21)
09. 'Them' (1:57)
10. Twiilight Symphony (4:09)
11. Coming Home (1:12)
12. Phone Call (1:39)

Лог EAC

Код:
EAC extraction logfile from 12. March 2007, 13:50 for CD
King Diamond / Them

Used drive  : TEAC    CD-W552E   Adapter: 1  ID: 0
Read mode   : Secure with NO C2, accurate stream, disable cache
Read offset correction : 6
Overread into Lead-In and Lead-Out : No

Used output format : C:\Program Files\FLAC\flac.exe   (User Defined Encoder)
                     32 kBit/s
                     Additional command line options : -6 -V -T "artist=%a" -T "title=%t" -T "album=%g" -T "date=%y" -T "tracknumber=%n" -T "genre=%m" -T "comment=EAC 0.95beta4 / FLAC 1.1.2a q6" %s

Other options      :
    Fill up missing offset samples with silence : Yes
    Delete leading and trailing silent blocks : No
    Native Win32 interface for Win NT & 2000

Range status and errors
Selected range
     Filename D:\[FLAC] King Diamond - Them\King Diamond - Them.wav.wav

     Peak level 100.0 %
     Range quality 100.0 %
     CRC 2713E377
     Copy OK

No errors occured

End of status report

Лог Audiochecker

Код:
AUDIOCHECKER v2.0 beta (build 457) - by Dester - opdester@freemail.hu
~~~~~~~~~~~~~~~~~~~~~~~~~~~~~~~~~~
-=== DO NOT EDIT THIS FILE! ===-

Path: ...\1988 - Them

01 -=- King Diamond - Them.flac -=- CDDA (99%)

109739748

1989 - Conspiracy

Продолжительность: 00:47:32

Треклист:

01. At the Graves (8:58)
02. Sleepless Nights (5:06)
03. Lies (4:23)
04. A Visit from the Dead (6:14)
05. The Wedding Dream (6:03)
06. 'Amon' Belongs to 'Them' (3:52)
07. Something Weird (2:09)
08. Victimized (5:21)
09. Let it be done (1:14)
10. Cremation (4:13)

Лог EAC

Код:
Exact Audio Copy V0.99 prebeta 4 from 23. January 2008

Отчёт EAC об извлечении, выполненном 11. марта 2009, 21:44

King Diamond / Conspiracy

Дисковод: PIONEER DVD-RW  DVR-112D   Adapter: 0  ID: 1

Режим чтения                 : Достоверность
Использование точного потока : Да
Отключение кэша аудио        : Да
Использование указателей C2  : Нет

Коррекция смещения при чтении                     : 48
Способность читать области Lead-in и Lead-out     : Нет
Заполнение пропущенных сэмплов тишиной            : Да
Удаление блоков с тишиной в начале и конце        : Нет
При вычислениях CRC использовались нулевые сэмплы : Нет
Интерфейс                                         : Встроенный Win32-интерфейс для Win NT/2000

Выходной формат : Внутренние WAV-операции
Формат сэмплов  : 44.100 Гц; 16 бит; стерео

TOC извлечённого CD

     Трек |   Старт  | Длительность | Начальный сектор | Конечный сектор
    ---------------------------------------------------------------------
       1  |  0:00.32 |    8:58.05   |          32      |      40386
       2  |  8:58.37 |    5:06.08   |       40387      |      63344
       3  | 14:04.45 |    4:23.32   |       63345      |      83101
       4  | 18:28.02 |    6:13.58   |       83102      |     111134
       5  | 24:41.60 |    6:02.62   |      111135      |     138346
       6  | 30:44.47 |    3:51.38   |      138347      |     155709
       7  | 34:36.10 |    2:08.50   |      155710      |     165359
       8  | 36:44.60 |    5:21.37   |      165360      |     189471
       9  | 42:06.22 |    1:13.55   |      189472      |     195001
      10  | 43:20.02 |    4:12.43   |      195002      |     213944

Характеристики диапазона извлечения и сообщения об ошибках

Выбранный диапазон

     Имя файла I:\!!_MUSIC_61Gb\!!! НОВОЕ - МОЁ В FLAC\King Diamond - Conspiracy Были ошибки\Новая папка\King Diamond - Conspiracy.wav

     Пиковый уровень 92.9 %
     Качество диапазона 100.0 %
     CRC копии 28A62FB5
     Копирование... OK

Ошибок не произошло

AccurateRip: сводка

Трек  1  точное извлечение (доверие 1)  [0216824B]
Трек  2  точное извлечение (доверие 1)  [7618475C]
Трек  3  точное извлечение (доверие 1)  [DD13546C]
Трек  4  точное извлечение (доверие 1)  [FD2CE6D2]
Трек  5  точное извлечение (доверие 1)  [868E5563]
Трек  6  точное извлечение (доверие 2)  [AC584C16]
Трек  7  точное извлечение (доверие 2)  [A461AEDF]
Трек  8  точное извлечение (доверие 2)  [79AD72FB]
Трек  9  точное извлечение (доверие 2)  [B20F66E2]
Трек 10  точное извлечение (доверие 2)  [A5309CE4]

Все треки извлечены точно

Конец отчёта

Лог Audiochecker

Код:
AUDIOCHECKER v2.0 beta (build 457) - by Dester - opdester@freemail.hu
~~~~~~~~~~~~~~~~~~~~~~~~~~~~~~~~~~
-=== DO NOT EDIT THIS FILE! ===-

Path: ...\1989 - Conspiracy

01 -=- King Diamond - Conspiracy.flac -=- CDDA (100%)

153114724

1991 - In Concert 1987 Abigail

Продолжительность: 00:52:49

Треклист:

01. Funeral (1:56)
02. Arrival (5:47)
03. Come To The Sabbath (5:43)
04. The Family Ghost (4:25)
05. The 7th Day Of July 1777 (4:26)
06. The Portrait (4:47)
07. Guitar Solo Andy (3:19)
08. The Possession (4:09)
09. Abigail (4:28)
10. Drum Solo (3:26)
11. The Candle (6:01)
12. No Presents For The Christmas (4:22)

Лог EAC

Код:
EAC extraction logfile from 27. January 2007, 12:42 for CD
King Diamond / In Concert 1987 Abigail

Used drive  : HL-DT-STDVDRAM GSA-4167B   Adapter: 1  ID: 1
Read mode   : Secure with NO C2, accurate stream, disable cache
Read offset correction : 667
Overread into Lead-In and Lead-Out : No

Used output format : D:\Program Files\EAC\Codecs\wapet.exe   (User Defined Encoder)
                     320 kBit/s
                     Additional command line options : %d -t "Artist=%a" -t "Album=%g" -t "Year=%y" -t "Genre=%m" mac %s %d -c4000

Other options      :
    Fill up missing offset samples with silence : Yes
    Delete leading and trailing silent blocks : No
    Installed external ASPI interface

Range status and errors
Selected range
     Filename E:\temp\release\King Diamond\In Concert 1987 Abigail\KD_iC87A.wav

     Peak level 80.9 %
     Range quality 99.9 %
     CRC D40468CF
     Copy OK

No errors occured

End of status report

Лог Audiochecker

Код:
AUDIOCHECKER v2.0 beta (build 457) - by Dester - opdester@freemail.hu
~~~~~~~~~~~~~~~~~~~~~~~~~~~~~~~~~~
-=== DO NOT EDIT THIS FILE! ===-

Path: ...\1990 - In Concert 1987 Abigail (Live)

01 -=- King Diamond - In Concert 1987 Abigail.flac -=- CDDA (99%)

136809780

1990 - The Eye

Продолжительность: 00:44:05

Треклист:

01. Eye Of The Witch (3:48)
02. The Trial (Chambre Ardente) (5:13)
03. Burn (3:43)
04. Two Little Girls (2:41)
05. Into The Convent (4:48)
06. Father Picard (3:20)
07. Behind These Walls (3:45)
08. The Meetings (4:32)
09. Insanity (3:00)
10. 1642 Imprisonment (3:31)
11. The Curse (5:44)

Лог EAC

Код:
Exact Audio Copy V0.99 prebeta 4 from 23. January 2008

Отчёт EAC об извлечении, выполненном 12. марта 2009, 9:53

King Diamond / The Eye

Дисковод: PIONEER DVD-RW  DVR-112D   Adapter: 0  ID: 1

Режим чтения                 : Достоверность
Использование точного потока : Да
Отключение кэша аудио        : Да
Использование указателей C2  : Нет

Коррекция смещения при чтении                     : 48
Способность читать области Lead-in и Lead-out     : Нет
Заполнение пропущенных сэмплов тишиной            : Да
Удаление блоков с тишиной в начале и конце        : Нет
При вычислениях CRC использовались нулевые сэмплы : Нет
Интерфейс                                         : Встроенный Win32-интерфейс для Win NT/2000

Выходной формат : Внутренние WAV-операции
Формат сэмплов  : 44.100 Гц; 16 бит; стерео

TOC извлечённого CD

     Трек |   Старт  | Длительность | Начальный сектор | Конечный сектор
    ---------------------------------------------------------------------
       1  |  0:00.00 |    3:47.40   |           0      |      17064
       2  |  3:47.40 |    5:13.05   |       17065      |      40544
       3  |  9:00.45 |    3:42.50   |       40545      |      57244
       4  | 12:43.20 |    2:41.32   |       57245      |      69351
       5  | 15:24.52 |    4:48.10   |       69352      |      90961
       6  | 20:12.62 |    3:19.70   |       90962      |     105956
       7  | 23:32.57 |    3:45.20   |      105957      |     122851
       8  | 27:18.02 |    4:31.68   |      122852      |     143244
       9  | 31:49.70 |    3:00.10   |      143245      |     156754
      10  | 34:50.05 |    3:31.22   |      156755      |     172601
      11  | 38:21.27 |    5:43.48   |      172602      |     198374

Характеристики диапазона извлечения и сообщения об ошибках

Выбранный диапазон

     Имя файла I:\!!_MUSIC_61Gb\!!! НОВОЕ - МОЁ В FLAC\King Diamond - The Eye\King Diamond - The Eye.wav

     Пиковый уровень 100.0 %
     Качество диапазона 100.0 %
     CRC копии F0827006
     Копирование... OK

Ошибок не произошло

AccurateRip: сводка

Трек  1  точное извлечение (доверие 5)  [9F635005]
Трек  2  точное извлечение (доверие 5)  [2EAD1E63]
Трек  3  точное извлечение (доверие 5)  [A68744BE]
Трек  4  точное извлечение (доверие 5)  [FDD589E0]
Трек  5  точное извлечение (доверие 5)  [4D6284BF]
Трек  6  точное извлечение (доверие 5)  [629EBD28]
Трек  7  точное извлечение (доверие 5)  [1E900DB6]
Трек  8  точное извлечение (доверие 5)  [B6D4B086]
Трек  9  точное извлечение (доверие 5)  [58CAB192]
Трек 10  точное извлечение (доверие 5)  [D4B8B59E]
Трек 11  точное извлечение (доверие 4)  [BF7D2D48]

Все треки извлечены точно

Конец отчёта

Лог Audiochecker

Код:
AUDIOCHECKER v2.0 beta (build 457) - by Dester - opdester@freemail.hu
~~~~~~~~~~~~~~~~~~~~~~~~~~~~~~~~~~
-=== DO NOT EDIT THIS FILE! ===-

Path: ...\1990 - The Eye

01 -=- King Diamond - The Eye.flac -=- CDDA (100%)

193423556

1995 - The Spider's Lullabye

Продолжительность: 00:47:19

Треклист:

01. From The Other Side (3:52)
02. Killer (4:17)
03. The Poltergeist (4:30)
04. Dreams (4:39)
05. Moonlight (4:32)
06. Six Feet Under (4:02)
07. The Spider's Lullabye (3:40)
08. Eastmann's Cure (4:32)
09. Room 17 (8:17)
10. To The Morgue (4:57)

Лог EAC

Код:
Exact Audio Copy V0.99 prebeta 4 from 23. January 2008

EAC extraction logfile from 22. January 2009, 0:13

King Diamond / The Spider's Lullabye

Used drive  : TSSTcorpCDDVDW SH-S223F   Adapter: 0  ID: 0

Read mode               : Secure
Utilize accurate stream : Yes
Defeat audio cache      : Yes
Make use of C2 pointers : No

Read offset correction                      : 6
Overread into Lead-In and Lead-Out          : No
Fill up missing offset samples with silence : Yes
Delete leading and trailing silent blocks   : No
Null samples used in CRC calculations       : Yes
Used interface                              : Installed external ASPI interface

Used output format              : User Defined Encoder
Selected bitrate                : 128 kBit/s
Quality                         : High
Add ID3 tag                     : No
Command line compressor         : C:\Program\Exact Audio Copy\flac-1.2.1-win\bin\flac.exe
Additional command line options : -V -6 -T "artist=%a" -T "title=%t" -T "album=%g" -T "date=%y" -T "tracknumber=%n" -T "genre=%m" %s

TOC of the extracted CD

     Track |   Start  |  Length  | Start sector | End sector
    ---------------------------------------------------------
        1  |  0:00.00 |  3:51.50 |         0    |    17374
        2  |  3:51.50 |  4:17.22 |     17375    |    36671
        3  |  8:08.72 |  4:29.68 |     36672    |    56914
        4  | 12:38.65 |  4:39.05 |     56915    |    77844
        5  | 17:17.70 |  4:32.32 |     77845    |    98276
        6  | 21:50.27 |  4:02.10 |     98277    |   116436
        7  | 25:52.37 |  3:39.45 |    116437    |   132906
        8  | 29:32.07 |  4:32.33 |    132907    |   153339
        9  | 34:04.40 |  8:17.32 |    153340    |   190646
       10  | 42:21.72 |  4:57.30 |    190647    |   212951

Range status and errors

Selected range

     Filename E:\King Diamond - The Spider's Lullabye.wav

     Peak level 100.0 %
     Range quality 100.0 %
     Copy CRC 83DEFCBD
     Copy OK

No errors occurred

AccurateRip summary

Track  1  accurately ripped (confidence 14)  [163D6505]
Track  2  accurately ripped (confidence 14)  [585A9CA0]
Track  3  accurately ripped (confidence 14)  [8FC403A7]
Track  4  accurately ripped (confidence 14)  [CA1D87C2]
Track  5  accurately ripped (confidence 14)  [2A54CA64]
Track  6  accurately ripped (confidence 14)  [CDAE36B1]
Track  7  accurately ripped (confidence 14)  [53EE334A]
Track  8  accurately ripped (confidence 14)  [2EF3B79C]
Track  9  accurately ripped (confidence 14)  [FB1A1B81]
Track 10  accurately ripped (confidence 14)  [C34A26AD]

All tracks accurately ripped

End of status report

Лог Audiochecker

Код:
AUDIOCHECKER v2.0 beta (build 457) - by Dester - opdester@freemail.hu
~~~~~~~~~~~~~~~~~~~~~~~~~~~~~~~~~~
-=== DO NOT EDIT THIS FILE! ===-

Path: ...\1995 - The Spider's Lullabye

01 -=- King Diamond - The Spider's Lullabye.flac -=- CDDA (100%)

110734036

1996 - The Graveyard

Продолжительность: 01:01:11

Треклист:

01. The Graveyard (1:22)
02. Black Hill Sanitarium (4:28)
03. Waiting (4:26)
04. Heads On The Wall (6:20)
05. Whispers (0:32)
06. I'm Not A Stranger (4:04)
07. Digging Graves (6:56)
08. Meet Me At Midnight (4:47)
09. Sleep Tight Little Baby (5:38)
10. Daddy (3:22)
11. Trick Or Treat (5:09)
12. Up From The Grave (3:18)
13. I Am (5:51)
14. Lucy Forever (4:57)

Лог EAC

Код:
Exact Audio Copy V0.99 prebeta 4 from 23. January 2008

Отчёт EAC об извлечении, выполненном 12. марта 2009, 11:12

King Diamond / The Graveyard

Дисковод: PIONEER DVD-RW  DVR-112D   Adapter: 0  ID: 1

Режим чтения                 : Достоверность
Использование точного потока : Да
Отключение кэша аудио        : Да
Использование указателей C2  : Нет

Коррекция смещения при чтении                     : 48
Способность читать области Lead-in и Lead-out     : Нет
Заполнение пропущенных сэмплов тишиной            : Да
Удаление блоков с тишиной в начале и конце        : Нет
При вычислениях CRC использовались нулевые сэмплы : Нет
Интерфейс                                         : Встроенный Win32-интерфейс для Win NT/2000

Выходной формат : Внутренние WAV-операции
Формат сэмплов  : 44.100 Гц; 16 бит; стерео

TOC извлечённого CD

     Трек |   Старт  | Длительность | Начальный сектор | Конечный сектор
    ---------------------------------------------------------------------
       1  |  0:00.00 |    1:22.27   |           0      |       6176
       2  |  1:22.27 |    4:28.25   |        6177      |      26301
       3  |  5:50.52 |    4:26.23   |       26302      |      46274
       4  | 10:17.00 |    6:20.12   |       46275      |      74786
       5  | 16:37.12 |    0:31.45   |       74787      |      77156
       6  | 17:08.57 |    4:03.40   |       77157      |      95421
       7  | 21:12.22 |    6:56.00   |       95422      |     126621
       8  | 28:08.22 |    4:46.53   |      126622      |     148124
       9  | 32:55.00 |    5:38.25   |      148125      |     173499
      10  | 38:33.25 |    3:22.32   |      173500      |     188681
      11  | 41:55.57 |    5:09.25   |      188682      |     211881
      12  | 47:05.07 |    3:18.33   |      211882      |     226764
      13  | 50:23.40 |    5:50.55   |      226765      |     253069
      14  | 56:14.20 |    4:56.57   |      253070      |     275326

Характеристики диапазона извлечения и сообщения об ошибках

Выбранный диапазон

     Имя файла I:\!!_MUSIC_61Gb\!!! НОВОЕ - МОЁ В FLAC\King Diamond - The Graveyard\King Diamond - The Graveyard.wav

     Пиковый уровень 98.0 %
     Качество диапазона 100.0 %
     CRC копии 6A94B9E4
     Копирование... OK

Ошибок не произошло

AccurateRip: сводка

Трек  1  точное извлечение (доверие 7)  [D6FAAD5B]
Трек  2  точное извлечение (доверие 7)  [E04A039A]
Трек  3  точное извлечение (доверие 7)  [A60FDFEF]
Трек  4  точное извлечение (доверие 7)  [DF5F336F]
Трек  5  точное извлечение (доверие 7)  [C00041B7]
Трек  6  точное извлечение (доверие 7)  [1BE1B5E5]
Трек  7  точное извлечение (доверие 5)  [F98C3844]
Трек  8  точное извлечение (доверие 7)  [F7EABF88]
Трек  9  точное извлечение (доверие 6)  [D759D6C8]
Трек 10  точное извлечение (доверие 7)  [CFA16E35]
Трек 11  точное извлечение (доверие 6)  [9D89A59E]
Трек 12  точное извлечение (доверие 7)  [3A241C5C]
Трек 13  точное извлечение (доверие 6)  [037047C1]
Трек 14  точное извлечение (доверие 6)  [95DAA782]

Все треки извлечены точно

Конец отчёта

Лог Audiochecker

Код:
AUDIOCHECKER v2.0 beta (build 457) - by Dester - opdester@freemail.hu
~~~~~~~~~~~~~~~~~~~~~~~~~~~~~~~~~~
-=== DO NOT EDIT THIS FILE! ===-

Path: ...\1996 - The Graveyard

01 -=- King Diamond - The Graveyard.flac -=- CDDA (100%)

185640500

1998 - Voodoo

Продолжительность: 01:01:57

Треклист:

01. Louisiana Darkness (1:43)
02. ''LOA'' House (5:33)
03. Life After Death (5:41)
04. Voodoo (4:34)
05. A Secret (4:04)
06. Salem (5:18)
07. One Down Two To Go (3:46)
08. Sending Of Dead (5:40)
09. Sarah's Night (3:22)
10. The Exorcist (4:52)
11. Unclean Spirits (1:50)
12. Cross Of Baron Samedi (4:29)
13. If They Only Knew (0:32)
14. Aftermath (10:32)

Лог EAC

Код:
Exact Audio Copy V0.99 prebeta 4 from 23. January 2008

Отчёт EAC об извлечении, выполненном 12. марта 2009, 17:05

King Diamond / Voodoo

Дисковод: PIONEER DVD-RW  DVR-112D   Adapter: 0  ID: 1

Режим чтения                 : Достоверность
Использование точного потока : Да
Отключение кэша аудио        : Да
Использование указателей C2  : Нет

Коррекция смещения при чтении                     : 48
Способность читать области Lead-in и Lead-out     : Нет
Заполнение пропущенных сэмплов тишиной            : Да
Удаление блоков с тишиной в начале и конце        : Нет
При вычислениях CRC использовались нулевые сэмплы : Нет
Интерфейс                                         : Встроенный Win32-интерфейс для Win NT/2000

Выходной формат : Внутренние WAV-операции
Формат сэмплов  : 44.100 Гц; 16 бит; стерео

TOC извлечённого CD

     Трек |   Старт  | Длительность | Начальный сектор | Конечный сектор
    ---------------------------------------------------------------------
       1  |  0:00.00 |    1:43.29   |           0      |       7753
       2  |  1:43.29 |    5:33.06   |        7754      |      32734
       3  |  7:16.35 |    5:40.40   |       32735      |      58274
       4  | 12:57.00 |    4:34.15   |       58275      |      78839
       5  | 17:31.15 |    4:04.10   |       78840      |      97149
       6  | 21:35.25 |    5:18.08   |       97150      |     121007
       7  | 26:53.33 |    3:45.42   |      121008      |     137924
       8  | 30:39.00 |    5:40.16   |      137925      |     163440
       9  | 36:19.16 |    3:22.35   |      163441      |     178625
      10  | 39:41.51 |    4:52.33   |      178626      |     200558
      11  | 44:34.09 |    1:49.56   |      200559      |     208789
      12  | 46:23.65 |    4:29.11   |      208790      |     228975
      13  | 50:53.01 |    0:32.26   |      228976      |     231401
      14  | 51:25.27 |   10:32.29   |      231402      |     278830

Характеристики диапазона извлечения и сообщения об ошибках

Выбранный диапазон

     Имя файла I:\!!_MUSIC_61Gb\!!! НОВОЕ - МОЁ В FLAC\King Diamond - Voodoo\King Diamond - Voodoo.wav

     Пиковый уровень 92.0 %
     Качество диапазона 100.0 %
     CRC копии F7B11400
     Копирование... OK

Ошибок не произошло

AccurateRip: сводка

Трек  1  точное извлечение (доверие 2)  [A4E27215]
Трек  2  точное извлечение (доверие 2)  [36061EAA]
Трек  3  точное извлечение (доверие 2)  [D496AF9F]
Трек  4  точное извлечение (доверие 2)  [5236DE20]
Трек  5  точное извлечение (доверие 2)  [75A6A860]
Трек  6  точное извлечение (доверие 2)  [65CBEB37]
Трек  7  точное извлечение (доверие 2)  [0D3F896D]
Трек  8  точное извлечение (доверие 2)  [770A5128]
Трек  9  точное извлечение (доверие 2)  [96E37325]
Трек 10  точное извлечение (доверие 2)  [0DA8F94D]
Трек 11  точное извлечение (доверие 2)  [7E01AC04]
Трек 12  точное извлечение (доверие 2)  [C94DB954]
Трек 13  точное извлечение (доверие 2)  [50459520]
Трек 14  точное извлечение (доверие 2)  [08DEB41F]

Все треки извлечены точно

Конец отчёта

Лог Audiochecker

Код:
AUDIOCHECKER v2.0 beta (build 457) - by Dester - opdester@freemail.hu
~~~~~~~~~~~~~~~~~~~~~~~~~~~~~~~~~~
-=== DO NOT EDIT THIS FILE! ===-

Path: ...\1998 - Voodoo

01 -=- King Diamond - Voodoo.flac -=- CDDA (100%)

217796676

2000 - House Of God

Продолжительность: 00:51:18

Треклист:

01. UponTthe Cross (1:44)
02. The Trees Have Eyes (4:46)
03. Follow The Wolf (4:27)
04. House Of God (5:36)
05. Black Devil (4:28)
06. The Pact (4:10)
07. Goodbye (2:00)
08. Just A Shadow (4:37)
09. Help!!! (4:22)
10. Passage To Hell (2:00)
11. Catacomb (5:02)
12. This Place Is Terrible (5:34)
13. Peace Of Mind (2:32)

Лог EAC

Код:
EAC extraction logfile from 10. January 2008, 13:29 for CD
King Diamond / House Of God

Used drive  : PLEXTOR CD-R   PX-230A   Adapter: 0  ID: 1
Read mode   : Secure with NO C2, accurate stream, disable cache
Read offset correction : 738
Overread into Lead-In and Lead-Out : No

Used output format : C:\Programmi\Exact Audio Copy\MAC.EXE   (Monkey's Audio Lossless Encoder)
                     High Lossless Compression

Other options      :
    Fill up missing offset samples with silence : Yes
    Delete leading and trailing silent blocks : No
    Native Win32 interface for Win NT & 2000

Range status and errors
Selected range
     Filename C:\Documents and Settings\oem\Documenti\Musica\King Diamond - House Of God\King Diamond - House Of God.wav.wav

     Peak level 99.8 %
     Range quality 100.0 %
     CRC 3F6A75AD
     Copy OK

No errors occured

End of status report

Лог Audiochecker

Код:
AUDIOCHECKER v2.0 beta (build 457) - by Dester - opdester@freemail.hu
~~~~~~~~~~~~~~~~~~~~~~~~~~~~~~~~~~
-=== DO NOT EDIT THIS FILE! ===-

Path: ...\2000 - House of God

01 -=- King Diamond - House Of God.flac -=- CDDA (100%)

62133732

2002 - Abigail II - The Revenge

Продолжительность: 00:53:08

Треклист:

01. Spare This Life (1:44)
02. The Storm (4:22)
03. Mansion In Sorrow (3:36)
04. Miriam (5:10)
05. Little One (4:32)
06. Slippery Stairs (5:10)
07. The Crypt (4:11)
08. Broken Glass (4:13)
09. More Than Pain (2:32)
10. The Wheelchair (5:19)
11. Spirits (4:58)
12. Mommy (6:27)
13. Sorry Dear (0:54)

Лог EAC

Код:
Exact Audio Copy V0.99 prebeta 4 from 23. January 2008

EAC extraction logfile from 6. June 2009, 1:25

King Diamond / Abigail II - The Revenge

Used drive  : MATSHITADVD-RAM UJ-842S   Adapter: 0  ID: 0

Read mode               : Secure
Utilize accurate stream : Yes
Defeat audio cache      : Yes
Make use of C2 pointers : No

Read offset correction                      : 102
Overread into Lead-In and Lead-Out          : No
Fill up missing offset samples with silence : Yes
Delete leading and trailing silent blocks   : No
Null samples used in CRC calculations       : Yes
Used interface                              : Native Win32 interface for Win NT & 2000

Used output format : Internal WAV Routines
Sample format      : 44.100 Hz; 16 Bit; Stereo

TOC of the extracted CD

     Track |   Start  |  Length  | Start sector | End sector
    ---------------------------------------------------------
        1  |  0:00.00 |  1:44.10 |         0    |     7809
        2  |  1:44.10 |  4:22.30 |      7810    |    27489
        3  |  6:06.40 |  3:36.22 |     27490    |    43711
        4  |  9:42.62 |  5:10.10 |     43712    |    66971
        5  | 14:52.72 |  4:31.45 |     66972    |    87341
        6  | 19:24.42 |  5:10.15 |     87342    |   110606
        7  | 24:34.57 |  4:11.13 |    110607    |   129444
        8  | 28:45.70 |  4:13.05 |    129445    |   148424
        9  | 32:59.00 |  2:31.60 |    148425    |   159809
       10  | 35:30.60 |  5:19.12 |    159810    |   183746
       11  | 40:49.72 |  4:57.55 |    183747    |   206076
       12  | 45:47.52 |  6:26.45 |    206077    |   235071
       13  | 52:14.22 |  0:54.10 |    235072    |   239131

Range status and errors

Selected range

     Filename C:\King Diamond - Abigail II The Revenge\King Diamond - Abigail II - The Revenge.wav

     Peak level 99.9 %
     Range quality 100.0 %
     Test CRC 3AB1E60F
     Copy CRC 3AB1E60F
     Copy OK

No errors occurred

AccurateRip summary

Track  1  accurately ripped (confidence 21)  [7AC4A48C]
Track  2  accurately ripped (confidence 21)  [872A5896]
Track  3  accurately ripped (confidence 21)  [49807ED1]
Track  4  accurately ripped (confidence 21)  [0526EE94]
Track  5  accurately ripped (confidence 21)  [7F000ACE]
Track  6  accurately ripped (confidence 21)  [54C1515C]
Track  7  accurately ripped (confidence 21)  [296CA00B]
Track  8  accurately ripped (confidence 20)  [A546B5CB]
Track  9  accurately ripped (confidence 21)  [18AF8101]
Track 10  accurately ripped (confidence 21)  [AE87D813]
Track 11  accurately ripped (confidence 19)  [9CF1AD4E]
Track 12  accurately ripped (confidence 19)  [3E947FD3]
Track 13  accurately ripped (confidence 19)  [80E3D699]

All tracks accurately ripped

End of status report

Лог Audiochecker

Код:
AUDIOCHECKER v2.0 beta (build 457) - by Dester - opdester@freemail.hu
~~~~~~~~~~~~~~~~~~~~~~~~~~~~~~~~~~
-=== DO NOT EDIT THIS FILE! ===-

Path: ...\2002 - Abigail II The Revenge

01 -=- King Diamond - Abigail II - The Revenge.flac -=- CDDA (100%)

199477140

2003 - The Puppet Master

Продолжительность: 00:55:48

Треклист:

01. Midnight (1:55)
02. The Puppet Master (4:41)
03. Magic (4:58)
04. Emerencia (5:20)
05. Blue Eyes (4:24)
06. The Ritual (5:03)
07. No More Me (3:16)
08. Blood to Walk (5:32)
09. Darkness (4:37)
10. So Sad (4:39)
11. Christmas (5:19)
12. Living Dead (6:04)

Лог EAC

Код:
Exact Audio Copy V0.99 prebeta 4 from 23. January 2008

EAC extraction logfile from 6. June 2009, 2:28

King Diamond / The Puppet Master

Used drive  : MATSHITADVD-RAM UJ-842S   Adapter: 0  ID: 0

Read mode               : Secure
Utilize accurate stream : Yes
Defeat audio cache      : Yes
Make use of C2 pointers : No

Read offset correction                      : 102
Overread into Lead-In and Lead-Out          : No
Fill up missing offset samples with silence : Yes
Delete leading and trailing silent blocks   : No
Null samples used in CRC calculations       : Yes
Used interface                              : Native Win32 interface for Win NT & 2000

Used output format : Internal WAV Routines
Sample format      : 44.100 Hz; 16 Bit; Stereo

TOC of the extracted CD

     Track |   Start  |  Length  | Start sector | End sector
    ---------------------------------------------------------
        1  |  0:00.00 |  1:55.15 |         0    |     8639
        2  |  1:55.15 |  4:41.13 |      8640    |    29727
        3  |  6:36.28 |  4:57.40 |     29728    |    52042
        4  | 11:33.68 |  5:19.44 |     52043    |    76011
        5  | 16:53.37 |  4:24.21 |     76012    |    95832
        6  | 21:17.58 |  5:02.51 |     95833    |   118533
        7  | 26:20.34 |  3:16.19 |    118534    |   133252
        8  | 29:36.53 |  5:32.11 |    133253    |   158163
        9  | 35:08.64 |  4:37.34 |    158164    |   178972
       10  | 39:46.23 |  4:38.50 |    178973    |   199872
       11  | 44:24.73 |  5:18.62 |    199873    |   223784
       12  | 49:43.60 |  6:04.28 |    223785    |   251112

Range status and errors

Selected range

     Filename C:\King Diamond - The Puppet Master\King Diamond - The Puppet Master.wav

     Peak level 100.0 %
     Range quality 99.9 %
     Test CRC D5A85E56
     Copy CRC D5A85E56
     Copy OK

No errors occurred

AccurateRip summary

Track  1  accurately ripped (confidence 27)  [060055B4]
Track  2  accurately ripped (confidence 27)  [9E78DE03]
Track  3  accurately ripped (confidence 27)  [D91A9D50]
Track  4  accurately ripped (confidence 27)  [DD6DACF2]
Track  5  accurately ripped (confidence 27)  [692E2F84]
Track  6  accurately ripped (confidence 27)  [7F6A02BA]
Track  7  accurately ripped (confidence 27)  [663BF911]
Track  8  accurately ripped (confidence 27)  [A4D415A0]
Track  9  accurately ripped (confidence 27)  [363ACE88]
Track 10  accurately ripped (confidence 27)  [926D1CB4]
Track 11  accurately ripped (confidence 27)  [B1190FCF]
Track 12  accurately ripped (confidence 26)  [BAD690A9]

All tracks accurately ripped

End of status report

Лог Audiochecker

Код:
AUDIOCHECKER v2.0 beta (build 457) - by Dester - opdester@freemail.hu
~~~~~~~~~~~~~~~~~~~~~~~~~~~~~~~~~~
-=== DO NOT EDIT THIS FILE! ===-

Path: ...\2003 - The Puppet Master

01 -=- King Diamond - The Puppet Master.flac -=- CDDA (100%)

74772

2004 - Deadly Lullabyes Live - CD1

Продолжительность: 00:41:55

Треклист:

01. Funeral (2:36)
02. A Mansion in Darkness (4:38)
03. The Family Ghost (4:35)
04. Black Horsemen (8:03)
05. Spare This Life (1:41)
06. Mansion in Sorrow (3:52)
07. Spirits (5:18)
08. Sorry Dear (1:07)
09. Eye of the Witch (4:24)
10. Sleepless Nights (5:41)

Лог EAC

Код:
EAC extraction logfile from 27. March 2007, 7:37 for CD
King Diamond / Deadly Lullabyes "Live"

Used drive  : JLMS    XJ-HD166S   Adapter: 3  ID: 1
Read mode   : Secure with NO C2, accurate stream, disable cache
Read offset correction : 12
Overread into Lead-In and Lead-Out : No

Used output format : C:\Program Files\Exact Audio Copy\MAC.EXE   (Monkey's Audio Lossless Encoder)
                     High Lossless Compression

Other options      :
    Fill up missing offset samples with silence : Yes
    Delete leading and trailing silent blocks : No
    Native Win32 interface for Win NT & 2000

Range status and errors
Selected range
     Filename C:\Lossrip\King Diamond.[2004].Deadly Lullabyes Live\Disc 1\Deadly Lullabyes Live - Disc 1.wav

     Peak level 100.0 %
     Range quality 100.0 %
     CRC 4EC1CF57
     Copy OK

No errors occured

End of status report

Лог Audiochecker

Код:
AUDIOCHECKER v2.0 beta (build 457) - by Dester - opdester@freemail.hu
~~~~~~~~~~~~~~~~~~~~~~~~~~~~~~~~~~
-=== DO NOT EDIT THIS FILE! ===-

Path: ...\CD1

01 -=- King Diamond - Deadly Lullabyes Live - CD1.flac -=- CDDA (100%)

33488452

2004 - Deadly Lullabyes Live - CD2

Продолжительность: 00:48:14

Треклист:

01. The Puppet Master (5:51)
02. Blood To Walk (5:51)
03. So Sad (4:42)
04. Living Dead (Outro) (1:41)
05. Welcome Home (5:50)
06. The Invisible Guests (5:34)
07. Burn (4:37)
08. Introductions (1:41)
09. Halloween (5:39)
10. No Presents For Christmas (6:48)

Лог EAC

Код:
EAC extraction logfile from 27. March 2007, 7:26 for CD
King Diamond / Deadly Lullabyes "Live"

Used drive  : JLMS    XJ-HD166S   Adapter: 3  ID: 1
Read mode   : Secure with NO C2, accurate stream, disable cache
Read offset correction : 12
Overread into Lead-In and Lead-Out : No

Used output format : C:\Program Files\Exact Audio Copy\MAC.EXE   (Monkey's Audio Lossless Encoder)
                     High Lossless Compression

Other options      :
    Fill up missing offset samples with silence : Yes
    Delete leading and trailing silent blocks : No
    Native Win32 interface for Win NT & 2000

Range status and errors
Selected range
     Filename C:\Lossrip\King Diamond.[2004].Deadly Lullabyes Live\Disc 2\Deadly Lullabyes Live - Disc 2.wav

     Peak level 100.0 %
     Range quality 100.0 %
     CRC 7F95C4A6
     Copy OK

No errors occured

End of status report

Лог Audiochecker

Код:
AUDIOCHECKER v2.0 beta (build 457) - by Dester - opdester@freemail.hu
~~~~~~~~~~~~~~~~~~~~~~~~~~~~~~~~~~
-=== DO NOT EDIT THIS FILE! ===-

Path: ...\CD2

01 -=- King Diamond - Deadly Lullabyes Live - CD2.flac -=- CDDA (100%)

33377860

2007 - Give Me Your Soul Please

Продолжительность: 00:54:05

Треклист:

01. The Dead (1:57)
02. Never Ending Hill (4:37)
03. Is Anybody Here? (4:13)
04. Black Of Night (4:01)
05. Mirror Mirror (5:00)
06. The Cellar (4:31)
07. Pictures In Red (1:27)
08. Give Me Your Soul (5:29)
09. The Floating Head (4:47)
10. Cold As Ice (4:30)
11. Shapes Of Black (4:22)
12. The Girl In The Bloody Dress (5:07)
13. Moving On (4:06)

Лог EAC

Код:
EAC extraction logfile from 1. July 2007, 17:54 for CD
King Diamond / GiveMeYourSoulPlease

Used drive  : PLEXTOR CD-R   PX-W4012A   Adapter: 2  ID: 0
Read mode   : Secure with NO C2, accurate stream, disable cache
Read offset correction : 98
Overread into Lead-In and Lead-Out : No

Used output format : C:\Program Files\FLAC\flac.exe   (User Defined Encoder)
                     320 kBit/s
                     Additional command line options : --best -V -T "date=%y" -T "genre=%m" %s

Other options      :
    Fill up missing offset samples with silence : Yes
    Delete leading and trailing silent blocks : No
    Native Win32 interface for Win NT & 2000

Range status and errors
Selected range
     Filename E:\Alf\AladdinSane\King Diamond - GiveMeYourSoulPlease.wav.wav.wav

     Peak level 98.8 %
     Range quality 100.0 %
     CRC 14886661
     Copy OK

No errors occured

End of status report

Лог Audiochecker

Код:
AUDIOCHECKER v2.0 beta (build 457) - by Dester - opdester@freemail.hu
~~~~~~~~~~~~~~~~~~~~~~~~~~~~~~~~~~
-=== DO NOT EDIT THIS FILE! ===-

Path: ...\2007 - Give Me Your Soul... Please

01 -=- King Diamond - Give Me Your Soul Please.flac -=- CDDA (100%)

16127092

Первоисточник deminbek известный Росийский трекер
большое спасибо :приветствую:

Детали торрента:
Название:King Diamond - Дискография (1986 - 2007) [FLAC|Lossless]<Heavy Metal>
Дата добавления:14 Июл 2010 16:25:19
Размер:4,9 GB
Раздают:
Качают:0
Форум:Metal (Lossless)

All rights reserved © 2015-2018