TORRENTS43.COM

Скачать Астрид Линдгрен | Малыш и Карлсон, который живёт на крыше [1958 (переиздание 2006)] [FLAC]


Астрид Линдгрен | Малыш и Карлсон, который живёт на крыше [1958 (переиздание 2006)] [FLAC]
Автор: Астрид Линдгрен
Название: Малыш и Карлсон, который живёт на крыше [Инсценировка]
Год: 1958 (переиздание 2006)
Жанр: Детская литература
Читает: Н.Литвинов, М.Корабельникова и другие
Продолжительность (время звучания): 01:25:42
Формат (аудиокодек): FLAC
Битрейт аудио: Lossless

Описание:
Действие повести происходит в 1950-е годы в центральном районе Стокгольма — Вазастане, где в одном доме проживают два главных героя — Сванте, младший ребёнок семьи Свантесон, по прозвищу Малыш, и — на крыше этого дома — Карлсон.
Музыка: Э.Денисов
Инсценировка и перевод: О.Москвичева
Режиссёры: Н.Литвинов, Н.Львова

Действующие лица и исполнители:

Карлсон – Н.Литвинов
Малыш – М.Корабельникова
Отец – В.Балашов
Мать – Н.Протопопова
Боссе – И.Потыцкая
Беттен, Кристер – З.Бокарева
Гунилла – Н.Львова
Ребенок – Ю.Хржановский
От автора – Н.Литвинов

Отчёт ЕАС:

Exact Audio Copy V0.99 prebeta 5 from 4. May 2009

Отчёт EAC об извлечении, выполненном 1. августа 2010, 16:45

Various / Karlsson-1958_CD1

Дисковод: ASUS DRW-1814BL Adapter: 0 ID: 0

Режим чтения : Достоверность
Использование точного потока : Да
Отключение кэша аудио : Да
Использование указателей C2 : Нет

Коррекция смещения при чтении : 6
Способность читать области Lead-in и Lead-out : Нет
Заполнение пропущенных сэмплов тишиной : Да
Удаление блоков с тишиной в начале и конце : Нет
При вычислениях CRC использовались нулевые сэмплы : Да
Интерфейс : Встроенный Win32-интерфейс для Win NT/2000

Выходной формат : Внутренние WAV-операции
Формат сэмплов : 44.100 Гц; 16 бит; стерео

TOC извлечённого CD

Трек | Старт | Длительность | Начальный сектор | Конечный сектор
---------------------------------------------------------------------
1 | 0:00.00 | 4:07.21 | 0 | 18545
2 | 4:07.21 | 13:04.32 | 18546 | 77377
3 | 17:11.53 | 6:23.19 | 77378 | 106121
4 | 23:34.72 | 7:26.25 | 106122 | 139596
5 | 31:01.22 | 6:34.42 | 139597 | 169188
6 | 37:35.64 | 7:25.45 | 169189 | 202608
7 | 45:01.34 | 4:57.15 | 202609 | 224898

Характеристики диапазона извлечения и сообщения об ошибках

Выбранный диапазон

Имя файла G:\Various - Karlsson-1958_CD1.wav

Пиковый уровень 100.0 %
Качество диапазона 100.0 %
CRC копии 11BF52F7
Копирование... OK

Ошибок не произошло

AccurateRip: сводка

Трек 1 нет в базе данных
Трек 2 нет в базе данных
Трек 3 нет в базе данных
Трек 4 нет в базе данных
Трек 5 нет в базе данных
Трек 6 нет в базе данных
Трек 7 нет в базе данных

Ни одного трека нет в базе AccurateRip

Конец отчёта

Exact Audio Copy V0.99 prebeta 5 from 4. May 2009

Отчёт EAC об извлечении, выполненном 1. августа 2010, 17:03

Various / Karlsson-1958_CD2

Дисковод: ASUS DRW-1814BL Adapter: 0 ID: 0

Режим чтения : Достоверность
Использование точного потока : Да
Отключение кэша аудио : Да
Использование указателей C2 : Нет

Коррекция смещения при чтении : 6
Способность читать области Lead-in и Lead-out : Нет
Заполнение пропущенных сэмплов тишиной : Да
Удаление блоков с тишиной в начале и конце : Нет
При вычислениях CRC использовались нулевые сэмплы : Да
Интерфейс : Встроенный Win32-интерфейс для Win NT/2000

Выходной формат : Внутренние WAV-операции
Формат сэмплов : 44.100 Гц; 16 бит; стерео

TOC извлечённого CD

Трек | Старт | Длительность | Начальный сектор | Конечный сектор
---------------------------------------------------------------------
1 | 0:00.00 | 8:30.51 | 0 | 38300
2 | 8:30.51 | 6:54.62 | 38301 | 69412
3 | 15:25.38 | 7:24.16 | 69413 | 102728
4 | 22:49.54 | 6:49.47 | 102729 | 133450
5 | 29:39.26 | 8:05.41 | 133451 | 169866

Характеристики диапазона извлечения и сообщения об ошибках

Выбранный диапазон

Имя файла G:\Various - Karlsson-1958_CD2.wav

Пиковый уровень 100.0 %
Качество диапазона 100.0 %
CRC копии 7CF796AF
Копирование... OK

Ошибок не произошло

AccurateRip: сводка

Трек 1 точное извлечение (доверие 1) [323499A6]
Трек 2 точное извлечение (доверие 1) [D0F8F7B1]
Трек 3 точное извлечение (доверие 1) [489D6A20]
Трек 4 точное извлечение (доверие 1) [3577D1B2]
Трек 5 точное извлечение (доверие 1) [7F8FC4E6]

Все треки извлечены точно

Конец отчёта

Отчёт Audiochecker:

AUDIOCHECKER v2.0 beta (build 457) - by Dester - opdester@freemail.hu
~~~~~~~~~~~~~~~~~~~~~~~~~~~~~~~~~~
-=== НЕ РЕДАКТИРУЙТЕ ЭТОТ ФАЙЛ! ===-

Путь: ...\Малыш и Карлсон, который живет на крыше_1958_CD1

1 -=- Various - Karlsson-1958_CD1.flac -=- CDDA (99%)

113996372

AUDIOCHECKER v2.0 beta (build 457) - by Dester - opdester@freemail.hu
~~~~~~~~~~~~~~~~~~~~~~~~~~~~~~~~~~
-=== НЕ РЕДАКТИРУЙТЕ ЭТОТ ФАЙЛ! ===-

Путь: ...\Малыш и Карлсон, который живет на крыше_1958_CD2

1 -=- Various - Karlsson-1958_CD2.flac -=- CDDA (100%)

213216868
Детали торрента:
Название:Астрид Линдгрен | Малыш и Карлсон, который живёт на крыше [1958 (переиздание 2006)] [FLAC]
Дата добавления:07 Авг 2010 12:12:05
Размер:418 MB
Раздают:
Качают:0
Форум:Аудиокниги для детей и родителей

All rights reserved © 2015-2018