TORRENTS43.COM

Скачать Modern Talking (1985 - 1998) + C.C.Catch (1986 - 1989)[MLP 2.0 44,1/16 |DVD-Audio (CD-Audio Rip)]<EuroDisco>


Modern Talking (1985 - 1998)
Год: 1985 - 1998
Жанр: EuroDisco

Кодек: MLP 44,1\16 2.0
Битрейт: Lossless

Это DVD-Audio диск. Сделан из lossless, разжатых в wav, с помощью SurCode MLP, DiskWelderCrome и небольшой проги cue2wld для автоматической генерации меню на основе релиза ув. ёёёdgjёёё и релиза ув. соседа Stanics.

Меню диска

Modern Talking

Modern Talking (Модерн Токинг) — немецкий англоязычный музыкальный дуэт исполнявший танцевальную музыку в стиле диско, состоявший из Томаса Андерса и Дитера Болена. В конце своего существования дуэт развился в до сих пор коммерчески самую успешную немецкую поп-формацию. Образован в 1984 г.

История коллектива
Во второй половине 1980-х гг. Modern Talking был одной из самых популярных групп Европы. Состав дуэта: Дитер Болен (р. 7 февраля 1954, Ольденбург), Томас Андерс (настоящее имя Бернд Вайдунг, р. 1 марта 1963, Мюнстермайфельд).

До образования дуэта
Знакомство музыкантов состоялось благодаря берлинской звукозаписывающей компании «Hansa»: композитор и продюсер Дитер Болен искал вокалиста для исполнения композиции «Was macht das schon» (кавер-версии песни F.R.David «Pick Up The Phone», к которой им был написан немецкоязычный текст). Откликнувшись на предложение Дитера, Томас немедленно прилетел в Гамбург, и работа началась.

В 1983—1984 году музыканты совместно выпустили 5 синглов на немецком языке, самым успешным из которых стал «Wovon traumst du denn» (1983), сразу попавший в немецкие хит-парады и проданный в количестве 30 тысяч копий. Однако постепенно Дитер начал понимать, что международного признания можно добиться только с песнями на английском языке, и в середине 1984 года музыкантами была записана кавер-версия хита группы Real Life «Catch Me I’m Falling». Однако в выходных данных имена музыкантов отсутствовали — проект получил название Headliner, а в качестве автора песни фигурировал Steve Benson (один из творческих псевдонимов Дитера Болена).

Начало Modern Talking
Звездная история дуэта началась с композиции «You’re My Heart, You’re My Soul» — суперхита, выпущенного в сентябре 1984 года. Первоначально сингл не получил должной оценки слушателей, и только после телевыступления в программе Formel Eins (17 января 1985 года) дуэт стал по-настоящему популярным: сингл занял первое место сначала в немецких хит-парадах, а затем и в европейских чартах.

Компания по производству спортивной одежды Adidas заключает контракт с Дитером на показ их одежды в клипах и на концертах.

В марте 1985 Modern Talking записали следующий хит — «You Can Win, If You Want», а чуть позже вышел первый альбом «The First Album», основные вокальные партии в котором исполнял Томас Андерс и лишь одна песня «There’s Too Much Blue In Missing You» — единственная за всю 20-летнюю историю дуэта — была записана с ведущим вокалом Дитера. Альбом имел огромный успех. На известном телевизионном «Peter’s Pop Show» в сентябре 1985 дуэту были вручены 75 «золотых» и «платиновых» дисков; Modern Talking приобрел статус супер-поп-группы и целую армию преданных фанатов во всей Европе. Выходящие пластинки распродавались огромными тиражами.

Разногласия и распад
Однако между участниками дуэта со временем начали возникать разногласия, которые в дальнейшем привели Modern Talking к распаду. Финальная сцена разрыва состоялась на одном из концертов в 1986 году. Поводом для ссоры Дитера и Томаса послужило несогласие в вопросе исполнительского состава (у обоих музыкантов было по две своих бэк-вокалистки). Пресса и общественное мнение склонны были обвинять в распаде Modern Talking весьма энергичную и честолюбивую жену Андерса, Нору Баллинг (она, кстати, была одной из бэк-вокалисток Томаса в тот злополучный вечер).

Группа просуществовала еще год, до срока истечения контракта, выпустила еще два альбома («Romantic Warriors» и «In The Garden Of Venus») и в 1987 по обоюдному согласию участников распалась.

После распада
Томас Андерс начал сольную карьеру и уехал в США. Дитер тоже занялся сольным проектом — Blue System. Оба музыканта были достаточно популярны, однако успеха Modern Talking не смог повторить ни один из них. Дитер Болен, помимо работы над проектом Blue System, писал музыку и песни для разных немецких артистов: Си Си Кэтч, Крис Норман, Бонни Тайлер, Эррол Браун и др.

Во время разрыва Томас Андерс наряду со своими песнями всегда исполнял хиты Modern Talking. Дитер Болен исполнял припевы популярных композиций на бис. Нередко Томас Андерс выступал как группа Modern Talking, несмотря на отсутствие Дитера на сцене.

Возвращение
Modern Talking с триумфом вернулись на поп-сцену весной 1998 года, вновь объединив свои усилия и выпустив альбом «Back For Good», состоявший из танцевальных ремиксов старых песен с добавлением четырёх новых композиций: «I Will Follow You», «Don’t Play With My Heart», «We Take The Chance, Anything is Possible». Завершал альбом Space Mix, собранный из популярных песен дуэта. По результатам продаж, альбом стал четырежды платиновым в Германии и превзошел платиновую отметку в некоторых других европейских странах. Общий итог мировых продаж альбома составил 26 млн копий. По словам Дитера, они уже несколько лет планировали обьединиться, но держали это в секрете от журналистов.

Было организовано турне посвященное этому событию. На сцене дуэт Modern Talking выступал в сопровождении музыкантов из группы Blue System.

С 1999 по 2003 год дуэт выпустил пять новых альбомов, три из которых также преодолели платиновый рубеж. Неизменным остался только стиль лёгкой современной танцевальной музыки. Некоторые композиции были записаны при участии репера (афро-американца по происхождению) Эрика Синглетона (Eric Newkirt Singleton), благодаря чему дуэт надеялся завоевать американскую аудиторию. Мечтам не суждено было сбыться, а присутствие третьего участника в дуэте вызвало резко отрицательную реакцию поклонников «первой волны». Композиции с Эриком выходили в свет на синглах и в видеоклипах. Некоторые клипы были сделаны в двух вариантах — с репером и без.

Распад
7 июня 2003 года Дитер Болен на концерте в Ростоке (Rostock) перед 24000 зрителей совершенно неожиданно для менеджмента дуэта и руководства звукозаписывающей компании объявил о распаде Modern Talking. Дитер: Я должен сказать вам, что с «Modern Talking» покончено. Томас и я решили, что мы снова в будущем идем разными путями. Официальная версия распада, по словам Дитера, состояла в том, что Томас без его ведома предпринял сольную гастрольную поездку в США летом 2003 года. 21 июня 2003 года под открытым небом Берлина состоялся прощальный концерт дуэта, который могли лицезреть 13000 зрителей. После распада оба музыканта заявили о своем намерении остаться на музыкальной сцене и заняться сольным творчеством.

Последний альбом
23 июня 2003 года вышел последний альбом группы: «The Final Album», в который вошли 20 лучших песен дуэта, записанных за 19 лет его существования, а 10 ноября увидел свет одноименный, первый в истории группы, DVD с аналогичным треклистом. Группа дала заключительный концерт, отрывки которого, вместе с интервью Дитера также вошли в DVD. Были исполнены 22 песни: «TV Makes The Superstar», «Everybody Needs Somebody», «Atlantis Is Calling (S.O.S. For Love)», «Heart Of An Angel», «Geronimos Cadillac», «Knocking On My Door», «Don`t Make Me Blue», «No Face, No Name, No Number», «You Can Win If You Want», «Don`t Take Away My Heart», «Last Exit To Brooklyn», «Juliet», «In 100 Years», «China In Her Eyes», «Jet Airliner», «Sexy Sexy Lover», «Ready For The Victory», «Cheri Cheri Lady», «Brother Louie», «You Are Not Alone», «Win The Race», «You`re My Heart, You`re My Soul». По сути дела, это был концерт из Universe-тура.

За время существования группы было продано более 120 миллионов звуковых носителей по всему миру.

События после распада
После распада Дитер Болен в своей автобиографии «Ничего кроме правды» не лестно отзывается о своем бывшем напарнике Томасе, и обвиняет его в присвоении денег дуэта. Томас Андерс подает в суд на Дитера Болена. Благодаря этим событиям, дуэт продолжает оставатся популярным, но уже на газетных страницах.

Следующие после распада Modern Talking альбомы Томаса Андерса будут похожи по стилю на последние альбомы дуэта. Дитер Болен воздержится от выпусков сольных альбомов до 2006 года. В 2006-м Дитер Болен выпускает комический полнометражный мультфильм «Der Film», описывающий жизнь Дитера. В саундтрек к мультфильму «Der Film» вошла переработанная Боленом неизданная песня дуэта «Shooting Star».
Albums:

1985 - The First Album (Released - 1988) (00:39:56)

Image
01. You're My Heart, You're My Soul (5:36)
02. You Can Win If You Want (3:53)
03. There's Too Much Blue In Missing You (4:45)
04. Diamonds Never Made A Lady (4:09)
05. The Night Is Yours - The Night Is Mine (5:33)
06. Do You Wanna (4:26)
07. Lucky Guy (3:34)
08. One In A Million (3:46)
09. Bells Of Paris (4:16)

ЕАС

Код:
Exact Audio Copy V0.99 prebeta 5 from 4. May 2009

Отчёт EAC об извлечении, выполненном 13. июня 2009, 1:46

Modern Talking / The First Album

Дисковод: ASUS    DRW-2014S1T   Adapter: 4  ID: 0

Режим чтения                 : Достоверность
Использование точного потока : Да
Отключение кэша аудио        : Да
Использование указателей C2  : Нет

Коррекция смещения при чтении                     : 6
Способность читать области Lead-in и Lead-out     : Нет
Заполнение пропущенных сэмплов тишиной            : Да
Удаление блоков с тишиной в начале и конце        : Нет
При вычислениях CRC использовались нулевые сэмплы : Да
Интерфейс                                         : Установленный внешний ASPI-интерфейс

Выходной формат : Внутренние WAV-операции
Формат сэмплов  : 44.100 Гц; 16 бит; стерео

TOC извлечённого CD

     Трек |   Старт  | Длительность | Начальный сектор | Конечный сектор
    ---------------------------------------------------------------------
       1  |  0:00.33 |    5:36.12   |          33      |      25244
       2  |  5:36.45 |    3:53.00   |       25245      |      42719
       3  |  9:29.45 |    4:44.38   |       42720      |      64057
       4  | 14:14.08 |    4:08.50   |       64058      |      82707
       5  | 18:22.58 |    5:32.62   |       82708      |     107669
       6  | 23:55.45 |    4:25.70   |      107670      |     127614
       7  | 28:21.40 |    3:34.05   |      127615      |     143669
       8  | 31:55.45 |    3:45.50   |      143670      |     160594
       9  | 35:41.20 |    4:15.50   |      160595      |     179769

Характеристики диапазона извлечения и сообщения об ошибках

Выбранный диапазон

     Имя файла Z:\Temp\Modern Talking - The First Album.wav

     Пиковый уровень 96.7 %
     Качество диапазона 100.0 %
     CRC теста C67E26F5
     CRC копии C67E26F5
     Копирование... OK

Ошибок не произошло

AccurateRip: сводка

Трек  1  точное извлечение (доверие 3)  [EC93BDCE]
Трек  2  точное извлечение (доверие 3)  [FECA3D7E]
Трек  3  точное извлечение (доверие 3)  [94B333FD]
Трек  4  точное извлечение (доверие 3)  [D4BE9941]
Трек  5  точное извлечение (доверие 3)  [9276BEB9]
Трек  6  точное извлечение (доверие 3)  [DF42D361]
Трек  7  точное извлечение (доверие 3)  [CD356917]
Трек  8  точное извлечение (доверие 3)  [88C1EA9D]
Трек  9  точное извлечение (доверие 3)  [03C24920]

Все треки извлечены точно

Конец отчёта

1985 - Let's Talk About Love (The 2nd Album) (Released - 1988) (00:38:56)

Image
01. Cheri Cheri Lady (3:51)
02. With A Little Love (3:39)
03. Wild Wild Water (4:23)
04. You're The Lady Of My Heart (3:24)
05. Just Like An Angel (3:20)
06. Heaven Will Know (4:07)
07. Love Don't Live Here Anymore (4:27)
08. Why Did You Do It Just Tonight (4:28)
09. Don't Give Up (3:24)
10. Let's Talk About Love (3:54)

ЕАС

Код:
Exact Audio Copy V0.99 prebeta 5 from 4. May 2009

Отчёт EAC об извлечении, выполненном 13. июня 2009, 1:32

Modern Talking / Let's Talk About Love (The 2nd Album)

Дисковод: ASUS    DRW-2014S1T   Adapter: 4  ID: 0

Режим чтения                 : Достоверность
Использование точного потока : Да
Отключение кэша аудио        : Да
Использование указателей C2  : Нет

Коррекция смещения при чтении                     : 6
Способность читать области Lead-in и Lead-out     : Нет
Заполнение пропущенных сэмплов тишиной            : Да
Удаление блоков с тишиной в начале и конце        : Нет
При вычислениях CRC использовались нулевые сэмплы : Да
Интерфейс                                         : Установленный внешний ASPI-интерфейс

Выходной формат : Внутренние WAV-операции
Формат сэмплов  : 44.100 Гц; 16 бит; стерео

TOC извлечённого CD

     Трек |   Старт  | Длительность | Начальный сектор | Конечный сектор
    ---------------------------------------------------------------------
       1  |  0:00.33 |    3:51.32   |          33      |      17389
       2  |  3:51.65 |    3:38.40   |       17390      |      33779
       3  |  7:30.30 |    4:22.60   |       33780      |      53489
       4  | 11:53.15 |    3:23.68   |       53490      |      68782
       5  | 15:17.08 |    3:19.65   |       68783      |      83772
       6  | 18:36.73 |    4:06.50   |       83773      |     102272
       7  | 22:43.48 |    4:26.45   |      102273      |     122267
       8  | 27:10.18 |    4:27.55   |      122268      |     142347
       9  | 31:37.73 |    3:24.12   |      142348      |     157659
      10  | 35:02.10 |    3:53.73   |      157660      |     175207

Характеристики диапазона извлечения и сообщения об ошибках

Выбранный диапазон

     Имя файла Z:\Temp\Modern Talking - Let's Talk About Love (The 2nd Album).wav

     Пиковый уровень 81.0 %
     Качество диапазона 100.0 %
     CRC теста 44F20C25
     CRC копии 44F20C25
     Копирование... OK

Ошибок не произошло

AccurateRip: сводка

Трек  1  точное извлечение (доверие 4)  [374A8EC8]
Трек  2  точное извлечение (доверие 4)  [4EA83F6C]
Трек  3  точное извлечение (доверие 4)  [EE0CCE7F]
Трек  4  точное извлечение (доверие 4)  [9D577AFC]
Трек  5  точное извлечение (доверие 4)  [45D461A9]
Трек  6  точное извлечение (доверие 4)  [B7D8E0A4]
Трек  7  точное извлечение (доверие 4)  [5DAEB68F]
Трек  8  точное извлечение (доверие 4)  [39FBCC29]
Трек  9  точное извлечение (доверие 4)  [98078070]
Трек 10  точное извлечение (доверие 4)  [202992E9]

Все треки извлечены точно

Конец отчёта

1986 - Ready For Romance (The 3rd Album) (Released - 1988) (00:38:00)

Image
01. Brother Louie (3:45)
02. Just We Two (Mona Lisa) (4:00)
03. Lady Lai (5:01)
04. Doctor For My Heart (3:22)
05. Save Me - Don't Break Me (3:49)
06. Atlantis Is Calling (S.O.S. For Love) (3:52)
07. Keep Love Alive (3:28)
08. Hey You (3:23)
09. Angie's Heart (3:41)
10. Only Love Can Break My Heart (3:38)

ЕАС

Код:
Exact Audio Copy V0.99 prebeta 5 from 4. May 2009

Отчёт EAC об извлечении, выполненном 13. июня 2009, 2:01

Modern Talking / Ready For Romance (The 3rd Album)

Дисковод: ASUS    DRW-2014S1T   Adapter: 4  ID: 0

Режим чтения                 : Достоверность
Использование точного потока : Да
Отключение кэша аудио        : Да
Использование указателей C2  : Нет

Коррекция смещения при чтении                     : 6
Способность читать области Lead-in и Lead-out     : Нет
Заполнение пропущенных сэмплов тишиной            : Да
Удаление блоков с тишиной в начале и конце        : Нет
При вычислениях CRC использовались нулевые сэмплы : Да
Интерфейс                                         : Установленный внешний ASPI-интерфейс

Выходной формат : Внутренние WAV-операции
Формат сэмплов  : 44.100 Гц; 16 бит; стерео

TOC извлечённого CD

     Трек |   Старт  | Длительность | Начальный сектор | Конечный сектор
    ---------------------------------------------------------------------
       1  |  0:00.33 |    3:45.25   |          33      |      16932
       2  |  3:45.58 |    4:00.12   |       16933      |      34944
       3  |  7:45.70 |    5:00.63   |       34945      |      57507
       4  | 12:46.58 |    3:22.00   |       57508      |      72657
       5  | 16:08.58 |    3:48.50   |       72658      |      89807
       6  | 19:57.33 |    3:52.25   |       89808      |     107232
       7  | 23:49.58 |    3:28.00   |      107233      |     122832
       8  | 27:17.58 |    3:23.25   |      122833      |     138082
       9  | 30:41.08 |    3:41.25   |      138083      |     154682
      10  | 34:22.33 |    3:38.25   |      154683      |     171057

Характеристики диапазона извлечения и сообщения об ошибках

Выбранный диапазон

     Имя файла Z:\Temp\Modern Talking - Ready For Romance (The 3rd Album).wav

     Пиковый уровень 92.3 %
     Качество диапазона 100.0 %
     CRC теста EA9D42D7
     CRC копии EA9D42D7
     Копирование... OK

Ошибок не произошло

AccurateRip: сводка

Трек  1  точное извлечение (доверие 4)  [B93B5282]
Трек  2  точное извлечение (доверие 4)  [6C1D4E2D]
Трек  3  точное извлечение (доверие 4)  [BDEEE068]
Трек  4  точное извлечение (доверие 4)  [47D459A8]
Трек  5  точное извлечение (доверие 4)  [E8D7D223]
Трек  6  точное извлечение (доверие 4)  [EF7EDD3E]
Трек  7  точное извлечение (доверие 4)  [5F3B6C9A]
Трек  8  точное извлечение (доверие 4)  [56FBA004]
Трек  9  точное извлечение (доверие 4)  [CBBBEFA0]
Трек 10  точное извлечение (доверие 4)  [DA75495D]

Все треки извлечены точно

Конец отчёта

1986 - In The Middle Of Nowhere (The 4th Album) (Released - 1988) (00:37:40)

Image
01. Geronimo's Cadillac (3:21)
02. Riding On A White Swan (3:56)
03. Give Me Peace On Earth (4:16)
04. Sweet Little Sheila (3:06)
05. Ten Thousand Lonely Drums (3:34)
06. Lonely Tears In Chinatown (3:33)
07. In Shaire (3:47)
08. Stranded In The Middle Of Nowhere (4:34)
09. The Angels Sing In New York City (3:36)
10. Princess Of The Night (3:57)

ЕАС

Код:

Exact Audio Copy V0.99 prebeta 5 from 4. May 2009

Отчёт EAC об извлечении, выполненном 13. июня 2009, 2:14

Modern Talking / In The Middle Of Nowhere (The 4th Album)

Дисковод: ASUS    DRW-2014S1T   Adapter: 4  ID: 0

Режим чтения                 : Достоверность
Использование точного потока : Да
Отключение кэша аудио        : Да
Использование указателей C2  : Нет

Коррекция смещения при чтении                     : 6
Способность читать области Lead-in и Lead-out     : Нет
Заполнение пропущенных сэмплов тишиной            : Да
Удаление блоков с тишиной в начале и конце        : Нет
При вычислениях CRC использовались нулевые сэмплы : Да
Интерфейс                                         : Установленный внешний ASPI-интерфейс

Выходной формат : Внутренние WAV-операции
Формат сэмплов  : 44.100 Гц; 16 бит; стерео

TOC извлечённого CD

     Трек |   Старт  | Длительность | Начальный сектор | Конечный сектор
    ---------------------------------------------------------------------
       1  |  0:00.33 |    3:21.37   |          33      |      15144
       2  |  3:21.70 |    3:56.25   |       15145      |      32869
       3  |  7:18.20 |    4:15.38   |       32870      |      52032
       4  | 11:33.58 |    3:06.12   |       52033      |      65994
       5  | 14:39.70 |    3:33.38   |       65995      |      82007
       6  | 18:13.33 |    3:33.00   |       82008      |      97982
       7  | 21:46.33 |    3:46.50   |       97983      |     114982
       8  | 25:33.08 |    4:34.00   |      114983      |     135532
       9  | 30:07.08 |    3:36.25   |      135533      |     151757
      10  | 33:43.33 |    3:57.00   |      151758      |     169532

Характеристики диапазона извлечения и сообщения об ошибках

Выбранный диапазон

     Имя файла Z:\Temp\Modern Talking - In The Middle Of Nowhere (The 4th Album).wav

     Пиковый уровень 91.3 %
     Качество диапазона 100.0 %
     CRC теста 02128A94
     CRC копии 02128A94
     Копирование... OK

Ошибок не произошло

AccurateRip: сводка

Трек  1  точное извлечение (доверие 2)  [CA0C2264]
Трек  2  точное извлечение (доверие 2)  [C58957A7]
Трек  3  точное извлечение (доверие 2)  [B9E56977]
Трек  4  точное извлечение (доверие 2)  [59AD4A90]
Трек  5  точное извлечение (доверие 2)  [FC3024E4]
Трек  6  точное извлечение (доверие 2)  [31D34929]
Трек  7  точное извлечение (доверие 2)  [E4964411]
Трек  8  точное извлечение (доверие 2)  [3081489D]
Трек  9  точное извлечение (доверие 2)  [2FCF6868]
Трек 10  точное извлечение (доверие 2)  [E5FAA38C]

Все треки извлечены точно

Конец отчёта

1987 - Romantic Warriors (The 5th Album) (Released - 1988) (00:38:11)

Image
01. Jet Airliner (4:24)
02. Like A Hero (3:48)
03. Don't Worry (3:35)
04. Blinded By Your Love (4:01)
05. Romantic Warriors (4:00)
06. Arabian Gold (3:43)
07. We Still Have Dreams (3:07)
08. Operator Gimme 609 (3:41)
09. You And Me (4:02)
10. Charlene (3:51)

ЕАС

Код:

Exact Audio Copy V0.99 prebeta 5 from 4. May 2009

Отчёт EAC об извлечении, выполненном 13. июня 2009, 2:28

Modern Talking / Romantic Warriors (The 5th Album)

Дисковод: ASUS    DRW-2014S1T   Adapter: 4  ID: 0

Режим чтения                 : Достоверность
Использование точного потока : Да
Отключение кэша аудио        : Да
Использование указателей C2  : Нет

Коррекция смещения при чтении                     : 6
Способность читать области Lead-in и Lead-out     : Нет
Заполнение пропущенных сэмплов тишиной            : Да
Удаление блоков с тишиной в начале и конце        : Нет
При вычислениях CRC использовались нулевые сэмплы : Да
Интерфейс                                         : Установленный внешний ASPI-интерфейс

Выходной формат : Внутренние WAV-операции
Формат сэмплов  : 44.100 Гц; 16 бит; стерео

TOC извлечённого CD

     Трек |   Старт  | Длительность | Начальный сектор | Конечный сектор
    ---------------------------------------------------------------------
       1  |  0:00.00 |    4:23.62   |           0      |      19786
       2  |  4:23.62 |    3:47.53   |       19787      |      36864
       3  |  8:11.40 |    3:35.32   |       36865      |      53021
       4  | 11:46.72 |    4:00.43   |       53022      |      71064
       5  | 15:47.40 |    3:59.52   |       71065      |      89041
       6  | 19:47.17 |    3:42.63   |       89042      |     105754
       7  | 23:30.05 |    3:07.35   |      105755      |     119814
       8  | 26:37.40 |    3:41.00   |      119815      |     136389
       9  | 30:18.40 |    4:01.57   |      136390      |     154521
      10  | 34:20.22 |    3:50.65   |      154522      |     171836

Характеристики диапазона извлечения и сообщения об ошибках

Выбранный диапазон

     Имя файла Z:\Temp\Modern Talking - Romantic Warriors (The 5th Album).wav

     Пиковый уровень 83.2 %
     Качество диапазона 100.0 %
     CRC теста 73D62B54
     CRC копии 73D62B54
     Копирование... OK

Ошибок не произошло

AccurateRip: сводка

Трек  1  точность не определена (достоверность 6)  [452E6A88], AccurateRip вернул [4FB832B0]
Трек  2  точность не определена (достоверность 6)  [330A9A43], AccurateRip вернул [A2BDD7CD]
Трек  3  точность не определена (достоверность 6)  [5E891D11], AccurateRip вернул [22A87B87]
Трек  4  точность не определена (достоверность 6)  [5FBD762B], AccurateRip вернул [9FC867EB]
Трек  5  точность не определена (достоверность 6)  [C8F50F26], AccurateRip вернул [F20CE314]
Трек  6  точность не определена (достоверность 6)  [D8A05CBC], AccurateRip вернул [CAFBA2D2]
Трек  7  точность не определена (достоверность 6)  [351E3122], AccurateRip вернул [22A53146]
Трек  8  точность не определена (достоверность 6)  [6E1D4A53], AccurateRip вернул [34AFB02F]
Трек  9  точность не определена (достоверность 6)  [3411019F], AccurateRip вернул [6B651115]
Трек 10  точность не определена (достоверность 6)  [3FAD06BB], AccurateRip вернул [0D90BFB7]

Ни один трек не прошёл проверки на точность
В вашей базе может быть иной вариант штамповки диска

Конец отчёта

1987 - In The Garden Of Venus (The 6th Album) (Released - 1988) (00:34:07)

Image
01. In 100 Years (4:01)
02. Don't Let It Get You Down (3:43)
03. Who Will Save The World (3:46)
04. A Telegram To Your Heart (2:53)
05. It's Christmas (3:54)
06. Don't Lose My Number (3:12)
07. Slow Motion (3:42)
08. Locomotion Tango (3:51)
09. Good Girls Go To Heaven - Bad Girls Go To Everywhere (3:38)
10. In 100 Years (Reprise) (1:28)

ЕАС

Код:

Exact Audio Copy V0.99 prebeta 5 from 4. May 2009

Отчёт EAC об извлечении, выполненном 13. июня 2009, 2:40

Modern Talking / In The Garden Of Venus (The 6th Album)

Дисковод: ASUS    DRW-2014S1T   Adapter: 4  ID: 0

Режим чтения                 : Достоверность
Использование точного потока : Да
Отключение кэша аудио        : Да
Использование указателей C2  : Нет

Коррекция смещения при чтении                     : 6
Способность читать области Lead-in и Lead-out     : Нет
Заполнение пропущенных сэмплов тишиной            : Да
Удаление блоков с тишиной в начале и конце        : Нет
При вычислениях CRC использовались нулевые сэмплы : Да
Интерфейс                                         : Установленный внешний ASPI-интерфейс

Выходной формат : Внутренние WAV-операции
Формат сэмплов  : 44.100 Гц; 16 бит; стерео

TOC извлечённого CD

     Трек |   Старт  | Длительность | Начальный сектор | Конечный сектор
    ---------------------------------------------------------------------
       1  |  0:00.00 |    4:00.47   |           0      |      18046
       2  |  4:00.47 |    3:42.73   |       18047      |      34769
       3  |  7:43.45 |    3:46.02   |       34770      |      51721
       4  | 11:29.47 |    2:53.00   |       51722      |      64696
       5  | 14:22.47 |    3:54.03   |       64697      |      82249
       6  | 18:16.50 |    3:11.72   |       82250      |      96646
       7  | 21:28.47 |    3:42.00   |       96647      |     113296
       8  | 25:10.47 |    3:51.03   |      113297      |     130624
       9  | 29:01.50 |    3:37.72   |      130625      |     146971
      10  | 32:39.47 |    1:27.53   |      146972      |     153549

Характеристики диапазона извлечения и сообщения об ошибках

Выбранный диапазон

     Имя файла Z:\Temp\Modern Talking - In The Garden Of Venus (The 6th Album).wav

     Пиковый уровень 91.6 %
     Качество диапазона 100.0 %
     CRC теста 7FD689C5
     CRC копии 7FD689C5
     Копирование... OK

Ошибок не произошло

AccurateRip: сводка

Трек  1  точное извлечение (доверие 4)  [49563AC3]
Трек  2  точное извлечение (доверие 4)  [A4908BBA]
Трек  3  точное извлечение (доверие 4)  [9D154075]
Трек  4  точное извлечение (доверие 4)  [8662DBDD]
Трек  5  точное извлечение (доверие 4)  [B17AB71D]
Трек  6  точное извлечение (доверие 4)  [C1AA29A4]
Трек  7  точное извлечение (доверие 4)  [9EC97C0C]
Трек  8  точное извлечение (доверие 4)  [0BC76AF0]
Трек  9  точное извлечение (доверие 4)  [914B1487]
Трек 10  точное извлечение (доверие 4)  [330027E9]

Все треки извлечены точно

Конец отчёта

1998 - Back For Good (The 7th Album) (01:11:26)

Image
01. You're My Heart, You're My Soul (New Version) (3:52)
02. Brother Louie (New Version) (3:38)
03. I Will Follow You (New Hit '98) (4:02)
04. Cheri Cheri Lady (New Version) (3:03)
05. You Can Win If You Want (New Version) (3:37)
06. Don't Play With My Heart (New Hit '98) (3:29)
07. Atlantis Is Caling (New Version) (3:24)
08. Geronimo's Cadillac (New Version) (3:10)
09. Give Me Peace On Earth (New Version) (4:27)
10. We Take The Chance (New Hit '98) (4:09)
11. Jet Airliner (New Version) (4:01)
12. Lady Lai (New Version) (5:07)
13. Anything Is Possible (New Hit '98) (3:39)
14. In 100 Years (New Version) (4:00)
15. Angie's Heart (New Version) (3:33)
16. You're My Heart, You're My Soul (Original No. 1 Mix '84) (3:23)
17. You Can Win If You Want (Original No. 1 Mix '84) (3:48)
18. No. 1 Hit Medley (7:04)

ЕАС

Код:

Exact Audio Copy V0.99 prebeta 5 from 4. May 2009

Отчёт EAC об извлечении, выполненном 13. июня 2009, 3:02

Modern Talking / Back For Good (The 7th Album)

Дисковод: ASUS    DRW-2014S1T   Adapter: 4  ID: 0

Режим чтения                 : Достоверность
Использование точного потока : Да
Отключение кэша аудио        : Да
Использование указателей C2  : Нет

Коррекция смещения при чтении                     : 6
Способность читать области Lead-in и Lead-out     : Нет
Заполнение пропущенных сэмплов тишиной            : Да
Удаление блоков с тишиной в начале и конце        : Нет
При вычислениях CRC использовались нулевые сэмплы : Да
Интерфейс                                         : Установленный внешний ASPI-интерфейс

Выходной формат : Внутренние WAV-операции
Формат сэмплов  : 44.100 Гц; 16 бит; стерео

TOC извлечённого CD

     Трек |   Старт  | Длительность | Начальный сектор | Конечный сектор
    ---------------------------------------------------------------------
       1  |  0:00.32 |    3:51.58   |          32      |      17414
       2  |  3:52.15 |    3:37.62   |       17415      |      33751
       3  |  7:30.02 |    4:01.55   |       33752      |      51881
       4  | 11:31.57 |    3:03.25   |       51882      |      65631
       5  | 14:35.07 |    3:37.25   |       65632      |      81931
       6  | 18:12.32 |    3:29.25   |       81932      |      97631
       7  | 21:41.57 |    3:24.25   |       97632      |     112956
       8  | 25:06.07 |    3:09.50   |      112957      |     127181
       9  | 28:15.57 |    4:27.00   |      127182      |     147206
      10  | 32:42.57 |    4:08.50   |      147207      |     165856
      11  | 36:51.32 |    4:00.63   |      165857      |     183919
      12  | 40:52.20 |    5:06.70   |      183920      |     206939
      13  | 45:59.15 |    3:39.00   |      206940      |     223364
      14  | 49:38.15 |    3:59.67   |      223365      |     241356
      15  | 53:38.07 |    3:33.18   |      241357      |     257349
      16  | 57:11.25 |    3:23.17   |      257350      |     272591
      17  | 60:34.42 |    3:48.15   |      272592      |     289706
      18  | 64:22.57 |    7:03.50   |      289707      |     321481

Характеристики диапазона извлечения и сообщения об ошибках

Выбранный диапазон

     Имя файла Z:\Temp\Modern Talking - Back For Good (The 7th Album).wav

     Пиковый уровень 100.0 %
     Качество диапазона 100.0 %
     CRC теста 29643004
     CRC копии 29643004
     Копирование... OK

Ошибок не произошло

AccurateRip: сводка

Трек  1  точное извлечение (доверие 47)  [5CE14269]
Трек  2  точное извлечение (доверие 46)  [A53B0DB9]
Трек  3  точное извлечение (доверие 46)  [AD0336DA]
Трек  4  точное извлечение (доверие 46)  [21D2B83D]
Трек  5  точное извлечение (доверие 46)  [037A8564]
Трек  6  точное извлечение (доверие 43)  [633C83E5]
Трек  7  точное извлечение (доверие 46)  [D49ED06C]
Трек  8  точное извлечение (доверие 46)  [06ACB2BF]
Трек  9  точное извлечение (доверие 46)  [336600D7]
Трек 10  точное извлечение (доверие 44)  [71D0695D]
Трек 11  точное извлечение (доверие 46)  [6F9CDE05]
Трек 12  точное извлечение (доверие 44)  [E6E2E27C]
Трек 13  точное извлечение (доверие 43)  [48267A8C]
Трек 14  точное извлечение (доверие 46)  [9AB16CD8]
Трек 15  точное извлечение (доверие 45)  [CBF87587]
Трек 16  точное извлечение (доверие 45)  [9E40A4D6]
Трек 17  точное извлечение (доверие 45)  [2F679CCA]
Трек 18  точное извлечение (доверие 44)  [5468E679]

Все треки извлечены точно

Конец отчёта

C.C.Catch (1986 - 1989)
Год: 1986 - 1989
Жанр: EuroDisco

Кодек: MLP 44,1\16 2.0
Битрейт: Lossless

Меню диска

C.C.Catch

Каролина Катарина Мюллер родилась 31-ого июля 1964 года в Голландии г.Осс, но прожила в деревушке Геффен неподалёку. Для нее потребовалось достаточно много времени, чтобы стать известной музыкальной звездой под псевдонимом "C.C.Catch". Имея горячее желание петь, Каролина оставила курсы модельеров чтобы участвовать во всех мыслимых и доступных в округе музыкальных фестивалях и конкурсах, и чаще появляться на сцене.
Ее мать, Corry, жила вместе с Caro в Голландии. А так как отец жил в Германии, мать Caro стала искать способ воссоединить семью. Когда Caro было 17 лет, она с матерью переехала в Германию г.Bйnde и поступила в 9 класс школы типа: Hauptschule. Там она стала заниматься дизайном одежды, но продолжая при этом заниматься музыкой: Caro берет уроки игры на гитаре и танцев. На семейном совете решается поддержать Каролину. Отец увольняется и все свои средства(20000 марок) вкладывает в дочь - открывает в подвале студию помощи молодым талантам "Orbit". В 1980 первый конкурс талантов "Juce Newton" с песней "Queen of heart"(демо-запись ещё и "C`est la vie") и увольняется с ненавистной швейной фабрики(как она говорила: если бы условия труда были получше - сверхурочные, окрики..., то она этого бы не сделала ). В 1980-1985 она участвует в женском квартете "Optimal" г.Osnabruck, продюсер Peter Kent, котрый подписал контракт со студией и выпустил 2 сингла: "Es war magnetish"(1984), "The goodbye"(1985). Сразу после этого, у Caro один за одним стали появляться шансы. Многие менеджеры и продюссеры обратили внимание на ее выступления и стали предлагать контракты со своими студиями, а также возможность появляться и на телевидении. Один из таких продюссеров предложил ей серьезный контракт. На первый взгляд казалось, что все складывается очень хорошо, однако, как выяснилось впоследствии, он не оценил Caro. Вместо этого он пытался заработать на ее песнях как можно больше денег - первый концерт в 1982 как соло-певицы под псевдонимом Carol Dean.
В 1985 бэк-вокалистка квартета "Optimal" Каролина была замечена в Дорфиссе на "Hamburger Diskothek" композитором и участником дуэта Modern Talking Дитером Боленом, который, как раз, работал над женским проектом. Его привлекла её красота, что нелишне в шоу-бизнесе. Прослушав её, он понял, что перед ним обладательница "бриллиантового" вокала и в тот же вечер, без всякого конкурса, предложил ей выгодный контракт, став её продюсером. С этого момента для ее карьеры началась новая эра - эра музыки, которая представит ее, как широко известную исполнительнице Disco по всей Европе и Азии (Скандинавия, Германия, Испания, Бельгия, Италия, Румыния, Польша, СССР, Израиль, Иран, Япония и т. д.). Псевдоним "CCCATCH" станет известен на многие годы. Образовался он следующим образом: буквы "CC"- это инициалы первого и среднего имен (Caroline Catherina), а модное словечко "Catch", означавшее примерно: "получите результат", было просто добавлено для хорошего восприятия псевдонима - "это просто фантазия, но звучит хорошо". Ставка на голос была беспроигрышной(забегая вперёд: её диски, к удивлению Д. Болена, по продажам обогнали Модерн Токинг) - летом 1985 года сингл "I can lose my heart tonight"(13 место в ФРГ) вышел именно под псевдонимом, настоящее же имя певицы не было указано ни на обложке, ни на обороте диска, не было и фото, поэтому никто её тогда не знал. Однако, данный сингл ''I can lose my heart tonight" стал большим хитом в Европе и попал в десятку всех музыкальных чартов. В начале 1986 года выходит второй сингл CCCATCH - "Cause you are young"(9м). На обложках была изображена красивая девушка, и большое любопытство вскоре было удовлетворено - ее имя C.C.Catch. Этот сингл также имел огромный успех и весной этого же года 1-й альбом "Catch The Catch" увидел свет. Альбом состоял из 8-и синглов, 7 из которых являлись maxy-версиями. Это был достаточно успешный альбом в мире: в Германии он стал платиновым, а в Иcпании золотым. Все песни с него пользовались успехом на дискотеках Европы. На обложке альбома был изображен великолепный черный кот - любимое домашнее животное C.C.Catch. Кота звали Mortjee и он был для нее как собственный ребенок,когда он умер в 1995, она горевала. В 1986 году на студии Hansa Records были выпущены 2 сингла: "Strangers by night"(9м), а также в ноябре, "Heartbreak Hotel"(8м), которые оказались более популярными, чем предыдущие 2. Они также вошли во 2-й альбом. Во время этого незабываемого периода карьеры C.C.Catch, многие фаны Modern Talking стали к ней скептически относиться - она была обвинена в том, что ее песни очень похожи на песни Modern Talking. Поэтому C.C.Catch пришлось объяснять это: "Дитер Болен является моим продюссером, а также продюссером Modern Talking. Он также пишет песни и для меня, поэтому его влияние на мои песни очевидно. Но я надеюсь, что со временем иу меня появится собственный стиль." Итак…"Welcome To My Heartbreak Hotel" был выпущен под Рождество 1986 года. Данный, 2-й по счету альбом C.C.Catch значительно превысил объем продаж предыдущего: Catch The Catch. Альбом состоял из 10 песен. Потребность в новом сингле была удовлетворена - "Heaven and hell" более трех недель находился в десятке вместе с другим синглом "Heartbreak Hotel". Помимо этого, для сингла "Heartbreak Hotel" был снят видеоклип. В данном видеоклипе были изображены страшные пантеры и пауки, скрывающиеся во тьме. Летом 87-ого новая песня от C.C.Catch появилась на всех радиостанциях Европы: "Are" you man enouth?"("Ты мужчина, наконец?")-20м. Сама C.C.Catch прокомментировала это название так: "Это о тех мужчинах, которые хвастаются перед женщинами, но на самом деле ничего из себя не представляют", кстати, первоначально эта песня предназначалась для жены Сильвестора Сталлоне. Вскоре появился и клип на эту песню, а следом и 3-й альбом "Lake A Hurricane". Подстригшись, накоротко в салоне Клеопатра(слетала на один день в Париж) она предстала настоящей красоткой, достаточно посмотреть клип "Soul Survivor"(17м). После этого Томас Андерс оставил дуэт Modern Talking, и появились обманчивые слухи о том, что C.C.Catch может занять его место. Но, когда Dieter Bohlen основал новую группу - Blue System, стало ясно, что это не так. В 1988 выходит последний, 4-й альбом "Big Fan". CCCatch была провозглашена в Европе Королевой Диско(этот титул не отнят до сих пор), стала певицей года ФРГ.
Находясь под впечатлением редкой критики, что её песни похожи на Модерн Токинг, СС предлагает собственные песни, но, естественно, получает отказ. Вдобавок, она очень устала от бесконечных турне. Начинаются конфликты с продюсером, она перестаёт учить тексты при записи(поэтому Дитер Болен выпустил неполный альбом-сборник "Diamonds", в который вошли только 3 новые песни, зато с суперхитом "House of mystic light"-22м).
В 1989 СС предприняла рискованный шаг: порвала с продюсером, рекорд-компанией и раскрученной Германией, высадившись со своим другом Frank Otto(барабанщик из Modern Talking) на Британских островах с целью завоевания её с нуля. К удивлению, ставку она сделала не на известного английского продюсера, а на 3-х малоизвестных экс-менеджера и музыкантов. Они, наверное, просто хотели нажиться на её популярности. Естественно, с таким подходом их 5-й альбом "Hear What I Say" успеха не имел. Хотя сингл "Big time" занял 26 м. в ФРГ. Каро(как называют её близкие) отметилась как соавтор 7 песен. Поп-звездой Англии она так и не стала. Надо отметить, что ни один певец Германии не стал знаменитым в Англии. Здесь надо учесть историческое неприятие англичанами немцев. Как метко заметил в своей книге Дитер Болен: если в Англии выступает группа из Германии, то это как выступление в Германии группы из Польши. Ошеломлённая неудачами CCCatch ещё спела инкогнито в альбоме Peter Gabriel "Jam Nation". Гордость не позволила ей вернуться в ФРГ и она тихо сошла со сцены в 1991, осев в Лондоне.
В 1998 она выходит замуж за своего учителя йоги, гражданина США Mann Airavata(но разводится из-за частых отлучек его в США). В том же году всё тот же Дитер Болен вызывает её из небытия для записи ремикс-альбома "Best of`98", где он применил модный в США рэп. Эксперимент не поняли - при мощнейшей рекламе рекорд-компании BMG продано было только 80000 экз. Тем не менее, СС уходит, с выплатой компенсации, от студии Metronome и решает вернуться на сцену именно не с привычной поп-музыкой, а демонстрируя синтез поп-музыки с заокеанским хип-хопом. Впрочем, пока без особого успеха - на германский олимп ей не удаётся вернуться. Наверное, поэтому в выпущенных синглах "Shake your head" и "C.C.Catch feat. Leela. Silence" старые добрые поп-мотивы. В 2003 она находит в себе мужество вернуться в Германию и сразу: сингл "...Silence", на него клип. Но альбома, как следовало ожидать, не последовало - вероятно сингл, запущенный без рекламы, не показал хороших продаж.
С 1998 C.C.Catch зарабатывает исключительно концертами. Учитывая, что она выступает без продюсера, следует признать - она до сих пор представляет в шоу-бизнесе значительную величину. Её уникальный по тембрам голос совершенно не изменился.
Живёт в Гамбурге с бой-френдом из России Alexander Wolf, в пентхаузе. Детей нет. Отец Peter Mйller - её бессменный менеджер. Как талантливая звезда, СС совершенно без каприз, только требует в гримёрке +30С. В интервью охотно отвечает на все вопросы, но не любит вопросы о Дитере Болене и о своей личной жизни. Вредных привычек нет. Хобби - танцы.
В 2005 вышел 1-й видеодиск "Catch The Hits"(DVD+CD). В 2008 пообещала выпустить 6-й альбом.
С 2007 живёт в Лондоне.
Albums:

1986 - Catch The Catch

Image
01.'Cause You Are Young (Maxi-Version) (4:47)
02.I Can Lose My Heart Tonight (Maxi-Version) (5:55)
03.You Shot A Hole In My Soul (Maxi-Version) (5:19)
04.One Night's Not Enough (3:23)
05.Strangers By Night (Maxi-Version) (5:44)
06.Stay (Maxi-Version) (5:49)
07.Jump In My Car (Maxi-Version) (4:37)
08.You Can Be My Lucky Star Tonight (Maxi-Version) (5:16)

ЕАС

Код:
Exact Audio Copy V0.99 prebeta 5 from 4. May 2009
Отчёт EAC об извлечении, выполненном 28. октября 2009, 23:26
C.C. Catch / Catch The Catch
Дисковод: ASUS    DRW-2014S1T   Adapter: 1  ID: 0
Режим чтения                 : Достоверность
Использование точного потока : Да
Отключение кэша аудио        : Да
Использование указателей C2  : Нет
Коррекция смещения при чтении                     : 6
Способность читать области Lead-in и Lead-out     : Нет
Заполнение пропущенных сэмплов тишиной            : Да
Удаление блоков с тишиной в начале и конце        : Нет
При вычислениях CRC использовались нулевые сэмплы : Да
Интерфейс                                         : Установленный внешний ASPI-интерфейс
Выходной формат : Внутренние WAV-операции
Формат сэмплов  : 44.100 Гц; 16 бит; стерео
TOC извлечённого CD
     Трек |   Старт  | Длительность | Начальный сектор | Конечный сектор
    ---------------------------------------------------------------------
       1  |  0:00.33 |    4:47.20   |          33      |      21577
       2  |  4:47.53 |    5:55.05   |       21578      |      48207
       3  | 10:42.58 |    5:19.37   |       48208      |      72169
       4  | 16:02.20 |    3:23.25   |       72170      |      87419
       5  | 19:25.45 |    5:44.30   |       87420      |     113249
       6  | 25:10.00 |    5:49.33   |      113250      |     139457
       7  | 30:59.33 |    4:36.45   |      139458      |     160202
       8  | 35:36.03 |    5:16.30   |      160203      |     183932
Характеристики диапазона извлечения и сообщения об ошибках
Выбранный диапазон
     Имя файла Z:\Temp\C.C. Catch - Catch The Catch.wav
     Пиковый уровень 94.8 %
     Качество диапазона 100.0 %
     CRC теста 2F278EB4
     CRC копии 2F278EB4
     Копирование... OK
Ошибок не произошло
AccurateRip: сводка
Трек  1  точное извлечение (доверие 6)  [61793228]
Трек  2  точное извлечение (доверие 5)  [7126E527]
Трек  3  точное извлечение (доверие 5)  [1FA52A9E]
Трек  4  точное извлечение (доверие 5)  [719FD4F6]
Трек  5  точное извлечение (доверие 5)  [7629A54C]
Трек  6  точное извлечение (доверие 5)  [530DB548]
Трек  7  точное извлечение (доверие 5)  [B8C9FC71]
Трек  8  точное извлечение (доверие 5)  [14AD75D1]
Все треки извлечены точно
Конец отчёта

1986 - Welcome To The Heartbreak Hotel

Image
01.Heartbreak Hotel (3:38)
02.Picture Blue Eyes (3:34)
03.Tears Won't Wash Away My Heartache (4:23)
04.V.I.P (They're Callin' Me Tonight) (3:32)
05.You Can't Run Away From It (3:16)
06.Heaven And Hell (3:44)
07.Hollywood Nights (3:15)
08.Born On The Wind (3:54)
09.Wild Fire (3:40)
10.Stop - Draggin' My Heart Around (3:18)

ЕАС

Код:
Exact Audio Copy V0.99 prebeta 5 from 4. May 2009
Отчёт EAC об извлечении, выполненном 28. октября 2009, 23:41
C.C. Catch / Welcome To The Heartbreak Hotel
Дисковод: ASUS    DRW-2014S1T   Adapter: 1  ID: 0
Режим чтения                 : Достоверность
Использование точного потока : Да
Отключение кэша аудио        : Да
Использование указателей C2  : Нет
Коррекция смещения при чтении                     : 6
Способность читать области Lead-in и Lead-out     : Нет
Заполнение пропущенных сэмплов тишиной            : Да
Удаление блоков с тишиной в начале и конце        : Нет
При вычислениях CRC использовались нулевые сэмплы : Да
Интерфейс                                         : Установленный внешний ASPI-интерфейс
Выходной формат : Внутренние WAV-операции
Формат сэмплов  : 44.100 Гц; 16 бит; стерео
TOC извлечённого CD
     Трек |   Старт  | Длительность | Начальный сектор | Конечный сектор
    ---------------------------------------------------------------------
       1  |  0:00.00 |    3:37.55   |           0      |      16329
       2  |  3:37.55 |    3:33.61   |       16330      |      32365
       3  |  7:11.41 |    4:22.68   |       32366      |      52083
       4  | 11:34.34 |    3:31.41   |       52084      |      67949
       5  | 15:06.00 |    3:16.33   |       67950      |      82682
       6  | 18:22.33 |    3:44.30   |       82683      |      99512
       7  | 22:06.63 |    3:14.73   |       99513      |     114135
       8  | 25:21.61 |    3:53.66   |      114136      |     131676
       9  | 29:15.52 |    3:39.65   |      131677      |     148166
      10  | 32:55.42 |    3:18.02   |      148167      |     163018
Характеристики диапазона извлечения и сообщения об ошибках
Выбранный диапазон
     Имя файла Z:\Temp\C.C. Catch - Welcome To The Heartbreak Hotel.wav
     Пиковый уровень 86.5 %
     Качество диапазона 100.0 %
     CRC теста FF7887C0
     CRC копии FF7887C0
     Копирование... OK
Ошибок не произошло
AccurateRip: сводка
Трек  1  точность не определена (достоверность 1)  [4938340F], AccurateRip вернул [9BC7E085]
Трек  2  точность не определена (достоверность 1)  [10C1FDCA], AccurateRip вернул [173FBDDE]
Трек  3  точность не определена (достоверность 1)  [ED8E5606], AccurateRip вернул [B1AF3D88]
Трек  4  точность не определена (достоверность 1)  [B8342815], AccurateRip вернул [B13D3E71]
Трек  5  точность не определена (достоверность 1)  [A7939830], AccurateRip вернул [8F4DEB0A]
Трек  6  точность не определена (достоверность 1)  [E994E06C], AccurateRip вернул [38AE89FA]
Трек  7  точность не определена (достоверность 1)  [86A8F737], AccurateRip вернул [F177A529]
Трек  8  точность не определена (достоверность 1)  [1F77AE56], AccurateRip вернул [D85C5190]
Трек  9  точность не определена (достоверность 1)  [D902321A], AccurateRip вернул [D3936B6C]
Трек 10  точность не определена (достоверность 1)  [48891ED8], AccurateRip вернул [7E347400]
Ни один трек не прошёл проверки на точность
В вашей базе может быть иной вариант штамповки диска
Конец отчёта

1987 - Like A Hurricane

Image
01.Good Guys Only Win In Movies (Long Version) (5:46)
02.Like A Hurricane (3:17)
03.Smoky Joe's Cafe (3:45)
04.Are You Man Enough (3:40)
05.Don't Be A Hero (3:35)
06.Soul Survivor (Long Version) (5:13)
07.Midnight Gambler (Long Version) (4:29)
08.Don't Wait Too Long (3:25)
09.Dancing In Shadows (3:37)

ЕАС

Код:
Exact Audio Copy V0.99 prebeta 5 from 4. May 2009
Отчёт EAC об извлечении, выполненном 29. октября 2009, 0:35
C.C. Catch / Like A Hurricane
Дисковод: ASUS    DRW-2014S1T   Adapter: 1  ID: 0
Режим чтения                 : Достоверность
Использование точного потока : Да
Отключение кэша аудио        : Да
Использование указателей C2  : Нет
Коррекция смещения при чтении                     : 6
Способность читать области Lead-in и Lead-out     : Нет
Заполнение пропущенных сэмплов тишиной            : Да
Удаление блоков с тишиной в начале и конце        : Нет
При вычислениях CRC использовались нулевые сэмплы : Да
Интерфейс                                         : Установленный внешний ASPI-интерфейс
Выходной формат : Внутренние WAV-операции
Формат сэмплов  : 44.100 Гц; 16 бит; стерео
TOC извлечённого CD
     Трек |   Старт  | Длительность | Начальный сектор | Конечный сектор
    ---------------------------------------------------------------------
       1  |  0:00.00 |    5:45.62   |           0      |      25936
       2  |  5:45.62 |    3:16.50   |       25937      |      40686
       3  |  9:02.37 |    3:44.63   |       40687      |      57549
       4  | 12:47.25 |    3:39.50   |       57550      |      74024
       5  | 16:27.00 |    3:35.00   |       74025      |      90149
       6  | 20:02.00 |    5:12.62   |       90150      |     113611
       7  | 25:14.62 |    4:29.13   |      113612      |     133799
       8  | 29:44.00 |    3:25.25   |      133800      |     149199
       9  | 33:09.25 |    3:36.50   |      149200      |     165449
Характеристики диапазона извлечения и сообщения об ошибках
Выбранный диапазон
     Имя файла Z:\Temp\C.C. Catch - Like A Hurricane.wav
     Пиковый уровень 100.0 %
     Качество диапазона 100.0 %
     CRC теста 0D702A4E
     CRC копии 0D702A4E
     Копирование... OK
Ошибок не произошло
AccurateRip: сводка
Трек  1  точное извлечение (доверие 2)  [27C92F79]
Трек  2  нет в базе данных
Трек  3  нет в базе данных
Трек  4  нет в базе данных
Трек  5  нет в базе данных
Трек  6  точное извлечение (доверие 2)  [4092C392]
Трек  7  нет в базе данных
Трек  8  нет в базе данных
Трек  9  нет в базе данных
 2 трек(и) скопированы точно
 7 трек(и) не содержатся в базе AccurateRip
Некоторые треки не прошли проверку на точность
Конец отчёта

1988 - Big Fun

Image
01.Backseat Of Your Cadillac (3:24)
02.Summer Kisses (3:52)
03.Are You Serious (3:07)
04.Night In Africa (4:09)
05.Heartbeat City (3:38)
06.Baby I Need Your Love (3:04)
07.Little By Little (3:06)
08.Nothing But A Heartache (3:03)
09.If I Feel Love (3:43)
10.Fire Of Love (3:00)

ЕАС

Код:
Exact Audio Copy V0.99 prebeta 5 from 4. May 2009
Отчёт EAC об извлечении, выполненном 29. октября 2009, 2:20
C.C. Catch / Big Fun
Дисковод: ASUS    DRW-2014S1T   Adapter: 1  ID: 0
Режим чтения                 : Достоверность
Использование точного потока : Да
Отключение кэша аудио        : Да
Использование указателей C2  : Нет
Коррекция смещения при чтении                     : 6
Способность читать области Lead-in и Lead-out     : Нет
Заполнение пропущенных сэмплов тишиной            : Да
Удаление блоков с тишиной в начале и конце        : Нет
При вычислениях CRC использовались нулевые сэмплы : Да
Интерфейс                                         : Установленный внешний ASPI-интерфейс
Выходной формат : Внутренние WAV-операции
Формат сэмплов  : 44.100 Гц; 16 бит; стерео
TOC извлечённого CD
     Трек |   Старт  | Длительность | Начальный сектор | Конечный сектор
    ---------------------------------------------------------------------
       1  |  0:00.00 |    3:24.30   |           0      |      15329
       2  |  3:24.30 |    3:51.47   |       15330      |      32701
       3  |  7:16.02 |    3:07.23   |       32702      |      46749
       4  | 10:23.25 |    4:09.12   |       46750      |      65436
       5  | 14:32.37 |    3:38.00   |       65437      |      81786
       6  | 18:10.37 |    3:03.38   |       81787      |      95549
       7  | 21:14.00 |    3:06.25   |       95550      |     109524
       8  | 24:20.25 |    3:02.67   |      109525      |     123241
       9  | 27:23.17 |    3:42.50   |      123242      |     139941
      10  | 31:05.67 |    3:00.08   |      139942      |     153449
Характеристики диапазона извлечения и сообщения об ошибках
Выбранный диапазон
     Имя файла Z:\Temp\C.C. Catch - Big Fun.wav
     Пиковый уровень 95.2 %
     Качество диапазона 100.0 %
     CRC теста DA13C71C
     CRC копии DA13C71C
     Копирование... OK
Ошибок не произошло
AccurateRip: сводка
Трек  1  точное извлечение (доверие 2)  [51860505]
Трек  2  точное извлечение (доверие 2)  [80F4F733]
Трек  3  точное извлечение (доверие 2)  [FF77FDDA]
Трек  4  точное извлечение (доверие 2)  [48898BD7]
Трек  5  точное извлечение (доверие 2)  [9840806A]
Трек  6  точное извлечение (доверие 2)  [4E3C9DFD]
Трек  7  точное извлечение (доверие 2)  [A61E36FD]
Трек  8  точное извлечение (доверие 2)  [A7197587]
Трек  9  точное извлечение (доверие 2)  [C63E2013]
Трек 10  точное извлечение (доверие 2)  [4E4652E8]
Все треки извлечены точно
Конец отчёта

1988 - Diamonds - Her Greatest Hits

Image
01.House Of Mystic Lights (Long Version - Dance Mix) (4:11)
02.Are You Man Enough (3:39)
03.'Cause You Are Young (3:31)
04.Don't Shoot My Sheriff Tonight (3:11)
05.Heartbreak Hotel (3:37)
06.Soul Survivor (3:18)
07.Strangers By Night (3:40)
08.I Can Lose My Heart Tonight (3:51)
09.Heaven And Hell (3:40)
10.Do You Love As You Look (3:36)
11.House Of Mystic Lights (Radio Swing Mix) (3:05)
12.Heartbreak Hotel (Room 69 Mix) (4:56)
13.Strangers By Night (Extended Version) (5:44)
14.I Can Lose My Heart Tonight (Extended Club Remix) (5:55)

ЕАС

Код:
Exact Audio Copy V0.99 prebeta 5 from 4. May 2009
Отчёт EAC об извлечении, выполненном 29. октября 2009, 10:39
C.C. Catch / Diamonds - Her Greatest Hits
Дисковод: ASUS    DRW-2014S1T   Adapter: 1  ID: 0
Режим чтения                 : Достоверность
Использование точного потока : Да
Отключение кэша аудио        : Да
Использование указателей C2  : Нет
Коррекция смещения при чтении                     : 6
Способность читать области Lead-in и Lead-out     : Нет
Заполнение пропущенных сэмплов тишиной            : Да
Удаление блоков с тишиной в начале и конце        : Нет
При вычислениях CRC использовались нулевые сэмплы : Да
Интерфейс                                         : Установленный внешний ASPI-интерфейс
Выходной формат : Внутренние WAV-операции
Формат сэмплов  : 44.100 Гц; 16 бит; стерео
TOC извлечённого CD
     Трек |   Старт  | Длительность | Начальный сектор | Конечный сектор
    ---------------------------------------------------------------------
       1  |  0:00.00 |    4:10.53   |           0      |      18802
       2  |  4:10.53 |    3:39.15   |       18803      |      35242
       3  |  7:49.68 |    3:30.47   |       35243      |      51039
       4  | 11:20.40 |    3:10.48   |       51040      |      65337
       5  | 14:31.13 |    3:36.67   |       65338      |      81604
       6  | 18:08.05 |    3:17.43   |       81605      |      96422
       7  | 21:25.48 |    3:39.57   |       96423      |     112904
       8  | 25:05.30 |    3:51.13   |      112905      |     130242
       9  | 28:56.43 |    3:40.05   |      130243      |     146747
      10  | 32:36.48 |    3:35.70   |      146748      |     162942
      11  | 36:12.43 |    3:05.00   |      162943      |     176817
      12  | 39:17.43 |    4:56.05   |      176818      |     199022
      13  | 44:13.48 |    5:44.25   |      199023      |     224847
      14  | 49:57.73 |    5:55.30   |      224848      |     251502
Характеристики диапазона извлечения и сообщения об ошибках
Выбранный диапазон
     Имя файла Z:\Temp\C.C. Catch - Diamonds - Her Greatest Hits.wav
     Пиковый уровень 89.1 %
     Качество диапазона 100.0 %
     CRC теста 34A0971D
     CRC копии 34A0971D
     Копирование... OK
Ошибок не произошло
AccurateRip: сводка
Трек  1  точное извлечение (доверие 3)  [064D624A]
Трек  2  точное извлечение (доверие 3)  [1FA0E7EB]
Трек  3  точное извлечение (доверие 3)  [F0B65123]
Трек  4  точное извлечение (доверие 3)  [C692F503]
Трек  5  точное извлечение (доверие 3)  [AB891505]
Трек  6  точное извлечение (доверие 3)  [C6710FA6]
Трек  7  точное извлечение (доверие 3)  [ADB4D3CD]
Трек  8  точное извлечение (доверие 3)  [B00B4B42]
Трек  9  точное извлечение (доверие 3)  [126B34F9]
Трек 10  точное извлечение (доверие 3)  [504D8D4F]
Трек 11  точное извлечение (доверие 3)  [BF7D0F2C]
Трек 12  точное извлечение (доверие 3)  [1D599FCC]
Трек 13  точное извлечение (доверие 3)  [CE5B313B]
Трек 14  точное извлечение (доверие 3)  [9F1E5345]
Все треки извлечены точно
Конец отчёта

1989 - Hear What I Say

Image
01.Midnight Hour (4:36)
02.Big Time (3:54)
03.Love Away (4:06)
04.Give Me What I Want (3:49)
05.I'm Gonna Miss You (5:42)
06.Backgirl (3:34)
07.Can't Catch Me (3:55)
08.Hear What I Say (3:50)
09.Nothing's Gonna Change Our Love (3:54)
10.Feels Like Heaven (5:22)

ЕАС

Код:
Exact Audio Copy V0.99 prebeta 5 from 4. May 2009
Отчёт EAC об извлечении, выполненном 29. октября 2009, 2:44
C.C. Catch / Hear What I Say
Дисковод: ASUS    DRW-2014S1T   Adapter: 1  ID: 0
Режим чтения                 : Достоверность
Использование точного потока : Да
Отключение кэша аудио        : Да
Использование указателей C2  : Нет
Коррекция смещения при чтении                     : 6
Способность читать области Lead-in и Lead-out     : Нет
Заполнение пропущенных сэмплов тишиной            : Да
Удаление блоков с тишиной в начале и конце        : Нет
При вычислениях CRC использовались нулевые сэмплы : Да
Интерфейс                                         : Установленный внешний ASPI-интерфейс
Выходной формат : Внутренние WAV-операции
Формат сэмплов  : 44.100 Гц; 16 бит; стерео
TOC извлечённого CD
     Трек |   Старт  | Длительность | Начальный сектор | Конечный сектор
    ---------------------------------------------------------------------
       1  |  0:00.33 |    4:35.70   |          33      |      20727
       2  |  4:36.28 |    3:53.60   |       20728      |      38262
       3  |  8:30.13 |    4:05.70   |       38263      |      56707
       4  | 12:36.08 |    3:49.05   |       56708      |      73887
       5  | 16:25.13 |    5:41.57   |       73888      |      99519
       6  | 22:06.70 |    3:33.40   |       99520      |     115534
       7  | 25:40.35 |    3:55.25   |      115535      |     133184
       8  | 29:35.60 |    3:49.50   |      133185      |     150409
       9  | 33:25.35 |    3:54.03   |      150410      |     167962
      10  | 37:19.38 |    5:22.02   |      167963      |     192114
Характеристики диапазона извлечения и сообщения об ошибках
Выбранный диапазон
     Имя файла Z:\Temp\C.C. Catch - Hear What I Say.wav
     Пиковый уровень 100.0 %
     Качество диапазона 99.9 %
     CRC теста F2D565C0
     CRC копии F2D565C0
     Копирование... OK
Ошибок не произошло
AccurateRip: сводка
Трек  1  точное извлечение (доверие 2)  [BA8732CC]
Трек  2  точное извлечение (доверие 2)  [9142E055]
Трек  3  точное извлечение (доверие 2)  [8FEFE38B]
Трек  4  точное извлечение (доверие 2)  [3082985D]
Трек  5  точное извлечение (доверие 2)  [4F7684C5]
Трек  6  точное извлечение (доверие 2)  [E228DB35]
Трек  7  точное извлечение (доверие 2)  [BA60B6C1]
Трек  8  точное извлечение (доверие 2)  [1C75F8DA]
Трек  9  точное извлечение (доверие 2)  [1C2F0C23]
Трек 10  точное извлечение (доверие 2)  [4ECC0955]
Все треки извлечены точно
Конец отчёта
Мои релизы "lossless to DVD-Audio":
Yello (1980-1997) [MLP|44.1\16 2.0]<Synth-pop>
A-Ha (1985-2009) [MLP|44.1/16 2.0]<pop>
Nostalgia Vol 1-16 [MLP|44.1/16 2.0]<pop>
Jean Michel Jarre - (1976 - 2002) [MLP 44.1/16 2.0] <Traditional Electronic, Ambient, New Age>
Pink Floyd (1967-1994) Audiophile [LPCM|44,1/16 2.0]<rock>
Electric Light Orchestra, ELO part II - (1971 - 2001) {LPCM 2.0 44.1/16}<rock>
Dire Straits (1978-1991) {LPCM 44,1/16 2.0}
Queen - Дискография (1973-2004) [LPCM 44,1/16 2.0, MLP 44,1/16 2.0]<rock>
Boney M - The Remastered Edition (2007) [MLP|44.1/16 2.0]<pop>
Sandra - (1985-2007) [MLP|44.1/16 2.0]<pop>

Детали торрента:
Название:Modern Talking (1985 - 1998) + C.C.Catch (1986 - 1989)[MLP 2.0 44,1/16 |DVD-Audio (CD-Audio Rip)]<EuroDisco>
Дата добавления:19 Дек 2010 21:47:02
Размер:4,3 GB
Раздают:2
Качают:0
Форум:Vinyl-Rip и Hand-Made

All rights reserved © 2015-2018