TORRENTS43.COM

Скачать Keith Urban - Defying Gravity (2009) [APE|Lossless]<Country, Country-Pop, Contemporary Pop/Rock>


Keith Urban - Defying Gravity (2009)
Год: 2009
Жанр: Country, Country-Pop, Contemporary Pop/Rock
Продолжительность: 00:48:23

Кодек: APE
Битрейт: Lossless

Трек лист:
01. Kiss a Girl
02. If Ever I Could Love
03. Sweet Thing
04. 'Til Summer Comes Around
05. My Heart Is Open
06. Hit The Ground Runnin'
07. Only You Can Love Me This Way
08. Standing Right in Front of You
09. Why's It Feel So Long
10. I'm In
11. Thank You

Отчёт ЕАС:

Exact Audio Copy V1.0 beta 1 from 15. November 2010

EAC extraction logfile from 27. January 2011, 23:44

Keith Urban / Defying Gravity

Used drive : SONY CD-RW CRX230ED Adapter: 0 ID: 1

Read mode : Secure
Utilize accurate stream : Yes
Defeat audio cache : Yes
Make use of C2 pointers : No

Read offset correction : 6
Overread into Lead-In and Lead-Out : No
Fill up missing offset samples with silence : Yes
Delete leading and trailing silent blocks : No
Null samples used in CRC calculations : Yes
Used interface : Installed external ASPI interface

Used output format : Monkey's Audio Lossless Encoder
Selected bitrate : Extra High Lossless Compression
Quality : High
Add ID3 tag : No
Command line compressor : C:\Program Files\Monkey's Audio\MAC.exe

TOC of the extracted CD

Track | Start | Length | Start sector | End sector
---------------------------------------------------------
1 | 0:00.00 | 3:46.55 | 0 | 17004
2 | 3:46.55 | 5:00.60 | 17005 | 39564
3 | 8:47.40 | 3:48.14 | 39565 | 56678
4 | 12:35.54 | 5:31.35 | 56679 | 81538
5 | 18:07.14 | 5:29.74 | 81539 | 106287
6 | 23:37.13 | 3:24.49 | 106288 | 121636
7 | 27:01.62 | 4:07.51 | 121637 | 140212
8 | 31:09.38 | 4:01.32 | 140213 | 158319
9 | 35:10.70 | 3:24.13 | 158320 | 173632
10 | 38:35.08 | 4:33.39 | 173633 | 194146
11 | 43:08.47 | 5:14.57 | 194147 | 217753

Range status and errors

Selected range

Filename J:\ajiger music collection\Keith Urban - Defying Gravity.wav

Peak level 100.0 %
Extraction speed 7.8 X
Range quality 100.0 %
Copy CRC E4494B12
Copy OK

No errors occurred

AccurateRip summary

Track 1 accurately ripped (confidence 76) [47ABD0ED]
Track 2 accurately ripped (confidence 76) [FEC0A38D]
Track 3 accurately ripped (confidence 76) [3B98E18C]
Track 4 accurately ripped (confidence 76) [C3922221]
Track 5 accurately ripped (confidence 75) [E663BE0C]
Track 6 accurately ripped (confidence 75) [00A46159]
Track 7 accurately ripped (confidence 76) [038F79FB]
Track 8 accurately ripped (confidence 74) [5929FFBE]
Track 9 accurately ripped (confidence 74) [141E88A1]
Track 10 accurately ripped (confidence 74) [2BAA5AE1]
Track 11 accurately ripped (confidence 70) [B9BD87E1]

All tracks accurately ripped

End of status report

Отчёт Audiochecker:

AUDIOCHECKER v2.0 beta (build 457) - by Dester - opdester@freemail.hu
~~~~~~~~~~~~~~~~~~~~~~~~~~~~~~~~~~
-=== DO NOT EDIT THIS FILE! ===-

Путь: ...\Keith Urban - Defying Gravity (2009)

1 -=- Keith Urban - Defying Gravity.ape -=- CDDA (100%)

224953892
Детали торрента:
Название:Keith Urban - Defying Gravity (2009) [APE|Lossless]<Country, Country-Pop, Contemporary Pop/Rock>
Дата добавления:14 Фев 2011 07:08:29
Размер:314 MB
Раздают:
Качают:0
Форум:Архив Музыки

All rights reserved © 2015-2018