TORRENTS43.COM

Скачать Мы ищем кляксу (1969 г.) VHSRip


Мы ищем кляксу (1969 г.) VHSRip
Год выпуска: 1969 г.
Жанр: Рисованая анимация

Описание:
Приключения школьников, которые преследуют кляксу, пачкающую рисунки.

Режиссер: Владимир Полковников
Персонажи: Художник, дети и сказочные персонажи

Продолжительность: 00:16:41
Перевод: Отсутствует

Видеокодек: Xvid
Битрейт видео: ~1 988 Kbps
Размер кадра: 672 x 512
Качество видео: VHSRip
Аудиокодек: AC3 2.0
Битрейт аудио: 192 kbps

MediaInfo

General
Complete name : my_ischem_kljaksu.avi
Format : AVI
Format/Info : Audio Video Interleave
File size : 261 MiB
Duration : 16mn 41s
Overall bit rate : 2 189 Kbps
Writing application : FairUse Wizard - http://fairusewizard.com
Writing library : The best and REALLY easy backup tool

Video
ID : 0
Format : MPEG-4 Visual
Format profile : Advanced Simple@L5
Format settings, BVOP : Yes
Format settings, QPel : No
Format settings, GMC : No warppoints
Format settings, Matrix : Default (MPEG)
Muxing mode : Packed bitstream
Codec ID : XVID
Codec ID/Hint : XviD
Duration : 16mn 41s
Bit rate : 1 988 Kbps
Width : 672 pixels
Height : 512 pixels
Display aspect ratio : 4:3
Frame rate : 25.000 fps
Resolution : 8 bits
Colorimetry : 4:2:0
Scan type : Progressive
Bits/(Pixel*Frame) : 0.231
Stream size : 237 MiB (91%)
Writing library : XviD 1.2.0.dev47 (UTC 2006-11-01)

Audio
ID : 1
Format : AC-3
Format/Info : Audio Coding 3
Codec ID : 2000
Duration : 16mn 41s
Bit rate mode : Constant
Bit rate : 192 Kbps
Channel(s) : 2 channels
Channel positions : L R
Sampling rate : 48.0 KHz
Stream size : 22.9 MiB (9%)
Alignment : Split accross interleaves
Interleave, duration : 40 ms (1.00 video frame)
Interleave, preload duration : 500 ms
Скриншоты:


Детали торрента:
Название:Мы ищем кляксу (1969 г.) VHSRip
Дата добавления:02 Мар 2011 22:48:17
Размер:261 MB
Раздают:1
Качают:0
Форум:Отечественные Мультфильмы для детей

All rights reserved © 2015-2018