TORRENTS43.COM

Скачать Небесные всадники / Дельтапланеристы / Sky Riders (1976) DVDRip


Небесные всадники / Дельтапланеристы / Sky Riders (1976) DVDRip
Русское название: Небесные всадники / Дельтапланеристы
Оригинальное название: Sky Riders
Год выпуска: 1976
Жанр: Боевик, Приключения

Описание фильма:
Группа террористов захватывает жену и ребенка крупного промышленника, требуя от него оружие в обмен на их жизни. Прежний супруг женщины-заложницы нанимает труппу циркачей-дельтапланеристов, вместе с ними и с их помощью приземляется на скалистом острове, где обосновались злодеи и где разворачивается невероятная операция по освобождению пленников

Режиссер: Дуглас Хикокс (США)
Актеры: Джеймс Коберн, Сюзанна Йорк, Роберт Калп, Шарль Азнавур, Гарри Эндрюс, Джон Бек, Зузу Кеннет

Продолжительность: 01:27:06
Перевод: Многоголосый закадровый



Дата мировой премьеры: 26 марта 1976

Видеокодек: Xvid
Битрейт видео: ~1998 Кбит/сек
Размер кадра: 720х304
Качество видео: DVDRip
Аудиокодек: AC3 2.0
Битрейт аудио: 192 Кбит/сек

Открыть

Размер файла : 1,46 Гбайт
Продолжительность : 1 ч. 27 м.
Общий поток : 2396 Кбит/сек
Программа кодирования : VirtualDubMod 1.5.10.2 (build 2540/release)
Библиотека кодирования : VirtualDubMod build 2540/release

Видео
Идентификатор : 0
Формат : MPEG-4 Visual
Профиль формата : Advanced Simple@L5
Параметр BVOP формата : 2
Параметр QPel формата : Нет
Параметр GMC формата : Без точки перехода
Параметр матрицы формата : Выборочная
Идентификатор кодека : XVID
Идентификатор кодека/Подсказка : XviD
Продолжительность : 1 ч. 27 м.
Битрейт : 1998 Кбит/сек
Ширина : 720 пикс.
Высота : 304 пикс.
Соотношение сторон : 2,35:1
Частота кадров : 25,000 кадр/сек
Цветовое пространство : YUV
Подвыборка цветности : 4:2:0
Битовая глубина : 8 бит
Тип развёртки : Прогрессивная
Метод сжатия : С потерями
Бит/(Пиксели*Кадры) : 0.365
Размер потока : 1,22 Гбайт (83%)
Библиотека кодирования : XviD 1.2.1 (UTC 2008-12-04)

Аудио #1
Идентификатор : 1
Формат : AC-3
Формат/Информация : Audio Coding 3
Расширение режима : CM (complete main)
Идентификатор кодека : 2000
Продолжительность : 1 ч. 27 м.
Вид битрейта : Постоянный
Битрейт : 192 Кбит/сек
Канал(ы) : 2 канала(ов)
Расположение каналов : Front: L R
Частота : 48,0 КГц
Битовая глубина : 16 бит
Метод сжатия : С потерями
Размер потока : 120 Мбайт (8%)
Выравнивание : Разделение по промежуткам
Продолжительность промежутка : 40 мс. (1,00 видеокадр)
Время предзагрузки промежутка : 500 ms

Аудио #2
Идентификатор : 2
Формат : AC-3
Формат/Информация : Audio Coding 3
Расширение режима : CM (complete main)
Идентификатор кодека : 2000
Продолжительность : 1 ч. 27 м.
Вид битрейта : Постоянный
Скриншоты:


Детали торрента:
Название:Небесные всадники / Дельтапланеристы / Sky Riders (1976) DVDRip
Дата добавления:03 Апр 2011 22:53:01
Размер:1,46 GB
Раздают:
Качают:0
Форум:Зарубежная Классика (HD*Rip/LQ, DVDRip, SATRip, VHSRip)

All rights reserved © 2015-2018